Torrent Search | Torrent Meta Search | Widgets

exxxtrasmall dakota skye full med

       
414.6 Mb
found 3 years ago
▲ seeders: 2 ▼ leechers:0
your vote:
real:
fake:
download torrent

exxxtrasmall dakota skye full med torrent

Information about the torrent exxxtrasmall dakota skye full med. Seeders, leechers and torrent status is updated several times per day.

If you want to download the video torrent exxxtrasmall dakota skye full med you will need a torrent client.

Torrent Metasearch.

.

tracker
seeders
leechers
↓ torrent client compatible list

↑ hide torrent client compatible list

comments/reviews
140
torrent contents

exxxtrasmall_dakota_skye_full_med.wmv torrent

exxxtrasmall_dakota_skye_full_med.wmv414.6 Mb torrent search

Sample info:
Duration: 00:27:21.05, start: 0.000000, bitrate: 2119 kb/s
Stream #0:0: Video: vc1 (Advanced) (WVC1 / 0x31435657), yuv420p, 960x540, 2000 kb/s, SAR 1:1 DAR 16:9, 23.98 tbr, 1k tbn, 1k tbc
Stream #0:1: Audio: wmav2 (a[1][0][0] / 0x0161), 44100 Hz, stereo, s16, 128 kb/s
screenshots
Images are auto generated please report any inapropriate images
 

related search cloud

 full  skye  dakota  exxxtrasmall