Torrent Search | Torrent Meta Search | Widgets

Rings (2017) BRRip XviD ETRG

711.14 Mb
found 9 days ago
▲ seeders: 2363 ▼ leechers:587
your vote:
real:
fake:
download torrent

Rings (2017) BRRip XviD ETRG torrent

Information about the torrent Rings (2017) BRRip XviD ETRG. Seeders, leechers and torrent status is updated several times per day.

If you want to download the hdrip torrent Rings (2017) BRRip XviD ETRG you will need a torrent client.

Torrent Metasearch.

tracker
seeders
leechers
↓ torrent client compatible list

↑ hide torrent client compatible list

torrent contents

Rings.2017.BRRip.XViD-ETRG torrent

Rings.2017.BRRip.XViD-ETRG
ETRG.mp41.45 Mb torrent search
Rings.2017.BRRip.XViD-ETRG.avi698.78 Mb torrent search
Rings.2017.BRRip.XViD-ETRG.srt51.42 Kb torrent search
Rings.nfo7.5 Kb torrent search
Torrent Downloaded From ExtraTorrent.cc.txt338 bytes torrent search
sample.avi10.85 Mb torrent search

Sample info:
Duration: 01:42:11.00, start: 0.000000, bitrate: 956 kb/s
Stream #0:0: Video: mpeg4 (Advanced Simple Profile) (XVID / 0x44495658), yuv420p, 640x352 [SAR 1:1 DAR 20:11], 834 kb/s, 23.98 fps, 23.98 tbr, 23.98 tbn, 23.98 tbc
Stream #0:1: Audio: mp3 (U[0][0][0] / 0x0055), 48000 Hz, stereo, s16p, 112 kb/s
screenshots
Images are auto generated please report any inapropriate images
 

related search cloud

 rings  etrg  xvid  brrip  sample  extratorrent  torrent  downloaded