Torrent Search | Torrent Meta Search | Widgets

pppd 232

1.11 Gb
found 1 year ago
▲ seeders: 3 ▼ leechers:2
your vote:
real:
fake:
Direct Download
THANK YOU
download torrent
  Direct Downloadsponsored

pppd 232 torrent

Information about the torrent pppd 232. Seeders, leechers and torrent status is updated everyday.

If you want to download the video torrent pppd 232 you will need a torrent client.

Torrent Metasearch.

tracker
seeders
leechers
↓ torrent client compatible list

↑ hide torrent client compatible list

Help torrentproject.se to stay alive .
Add links of torrentproject.se in your favorite forum, blog, youtube, facebook, twitter etc.
reviews
140
torrent contents

pppd-232.mp4 torrent

pppd-232.mp41.11 Gb torrent search

Sample info:
Duration: 01:58:49.94, start: 0.000000, bitrate: 1332 kb/s
Stream #0.0(eng): Video: h264 (Constrained Baseline), yuv420p, 720x400 [PAR 1:1 DAR 9:5], 1200 kb/s, 30 fps, 30 tbr, 90k tbn, 60 tbc
creation_time	: 1947-04-13 05:29:26
Stream #0.1(eng): Audio: aac, 44100 Hz, stereo, s16, 127 kb/s
creation_time	: 1947-04-13 05:29:26
screenshots
pppd 232 torrent screenshot 22115DE6481DEEE39965C21F907FEE748D46FD83 pppd 232 torrent screenshot 22115de6481deee39965c21f907fee748d46fd83 torrent pppd 232
pppd-232.mp4 images are auto generated please report any inapropriate images
 

related search cloud

 pppd