Torrent Search | Torrent Meta Search | Widgets

FuckedHard18 Natasha Malkova

1.28 Gb
found 2 years ago
▲ seeders: 2 ▼ leechers:1
your vote:
real:
fake:
Direct Download
THANK YOU
download torrent
  Direct Downloadsponsored

FuckedHard18 Natasha Malkova torrent

Information about the torrent FuckedHard18 Natasha Malkova. Seeders, leechers and torrent status is updated several times per day.

If you want to download the video torrent FuckedHard18 Natasha Malkova you will need a torrent client.

Torrent Metasearch.

tracker
seeders
leechers
↓ torrent client compatible list

↑ hide torrent client compatible list

Help torrentproject.se to stay alive .
Add links of torrentproject.se in your favorite forum, blog, youtube, facebook, twitter etc.
reviews
140
torrent contents

FuckedHard18_Natasha_Malkova.mp4 torrent

FuckedHard18_Natasha_Malkova.mp41.28 Gb torrent search

Sample info:
Duration: 01:09:44.48, start: 0.000000, bitrate: 2617 kb/s
Stream #0.0(eng): Audio: aac, 44100 Hz, stereo, s16, 128 kb/s
creation_time	: 2013-01-07 07:57:33
Stream #0.1(eng): Video: h264 (Main), yuv420p, 1000x564 [PAR 1:1 DAR 250:141], 2485 kb/s, 29.97 fps, 29.97 tbr, 30k tbn, 59.94 tbc
creation_time	: 2013-01-07 07:57:33
screenshots
FuckedHard18 Natasha Malkova torrent screenshot 23319A8C4A3A9EFE04348B588AD041AD0349D024 FuckedHard18 Natasha Malkova torrent screenshot 23319a8c4a3a9efe04348b588ad041ad0349d024 torrent FuckedHard18 Natasha Malkova
FuckedHard18_Natasha_Malkova.mp4 images are auto generated please report any inapropriate images
you may be interested in these torrents seeders leechers size found
FuckedHard18 Natasha Malkova Nadia 720p     15 8 1.53 Gb 2 years ago

FuckedHard18 - Natasha Malkova, Nadia [720p].wmv


FuckedHard18 Natasha Malkova 720p 1 1 1.53 Gb 2 years ago

FuckedHard18_Natasha_Malkova_720p.wmv


 

related search cloud

 malkova  natasha  fuckedhard