Torrent Search | Torrent Meta Search | Widgets

Kristina Milan 42KKKcups Q DVD Rip

       
1.02 Gb
found 4 years ago
▲ seeders: 3 ▼ leechers:2
your vote:
real:
fake:
Direct Download
THANK YOU
download torrent
  Direct Downloadsponsored

Kristina Milan 42KKKcups Q DVD Rip torrent

Information about the torrent Kristina Milan 42KKKcups Q DVD Rip. Seeders, leechers and torrent status is updated several times per day.

If you want to download the video torrent Kristina Milan 42KKKcups Q DVD Rip you will need a torrent client.

Torrent Metasearch.

.

tracker
seeders
leechers
↓ torrent client compatible list

↑ hide torrent client compatible list

Help torrentproject.se to stay alive .
Add links of torrentproject.se in your favorite forum, blog, youtube, facebook, twitter etc.
reviews
140
torrent contents

Kristina_Milan_42KKKcups(Q DVD Rip).avi torrent

Kristina_Milan_42KKKcups(Q DVD Rip).avi1.02 Gb torrent search

Sample info:
Duration: 01:03:02.34, start: 0.000000, bitrate: 2320 kb/s
Stream #0.0: Video: mpeg4 (Advanced Simple Profile), yuv420p, 720x480 [PAR 1:1 DAR 3:2], 29.97 tbr, 29.97 tbn, 29.98 tbc
Stream #0.1: Audio: mp3, 48000 Hz, stereo, s16, 64 kb/s
screenshots
Kristina Milan 42KKKcups Q torrent screenshot 235726405CEF59E4CA6DEE081FE6D34631043908 Kristina Milan 42KKKcups Q  torrent screenshot 235726405cef59e4ca6dee081fe6d34631043908 torrent Kristina Milan 42KKKcups Q
Kristina_Milan_42KKKcups(Q DVD Rip).avi images are auto generated please report any inapropriate images
 

related search cloud

 kkkcups  milan  kristina