Torrent Search | Torrent Meta Search | Widgets

The Hottie and the Nottie (2008) DVDRip XviD LMG

       
700.16 Mb
found 4 years ago
▲ seeders: 11 ▼ leechers:1
your vote:
real:
fake:
Direct Download
THANK YOU
download torrent
  Direct Downloadsponsored

The Hottie and the Nottie (2008) DVDRip XviD LMG torrent

Information about the torrent The Hottie and the Nottie (2008) DVDRip XviD LMG. Seeders, leechers and torrent status is updated several times per day.

If you want to download the dvdrip torrent The Hottie and the Nottie (2008) DVDRip XviD LMG you will need a torrent client.

Torrent Metasearch.

Torrent verified by torlock.com.

tracker
seeders
leechers
↓ torrent client compatible list

↑ hide torrent client compatible list

Help torrentproject.se to stay alive .
Add links of torrentproject.se in your favorite forum, blog, youtube, facebook, twitter etc.
reviews
140
torrent contents

The Hottie and the Nottie 2008 DVDRip XviD-LMG[Www.Overget.Com] torrent

The Hottie and the Nottie 2008 DVDRip XviD-LMG[Www.Overget.Com]
Overget.txt663 bytes torrent search
lmg-hottie.avi700.16 Mb torrent search

Sample info:
Duration: 01:31:14.97, start: 0.000000, bitrate: 1072 kb/s
Stream #0.0: Video: mpeg4, yuv420p, 624x352 [PAR 1:1 DAR 39:22], 23.98 tbr, 23.98 tbn, 23.98 tbc
Stream #0.1: Audio: mp3, 48000 Hz, 2 channels, s16, 130 kb/s
screenshots
The Hottie and the torrent screenshot 2458ADA3DA9F418DACD3D9FF3C052CFA5806AA0B The Hottie and the  torrent screenshot 2458ada3da9f418dacd3d9ff3c052cfa5806aa0b torrent The Hottie and the
The Hottie and the Nottie 2008 DVDRip XviD-LMG[Www.Overget.Com] images are auto generated please report any inapropriate images
 

related search cloud

 hottie  overget  xvid  dvdrip  nottie