Torrent Search | Torrent Meta Search | Widgets

Costa! De Serie Retail Seizoen 4 Hornigold TBS

       
13.35 Gb
found 6 years ago
▲ seeders: 0 ▼ leechers:1
your vote:
real:
fake:
download torrent

Costa! De Serie Retail Seizoen 4 Hornigold TBS torrent

Information about the torrent Costa! De Serie Retail Seizoen 4 Hornigold TBS. Seeders, leechers and torrent status is updated everyday.

If you want to download the dvd torrent Costa! De Serie Retail Seizoen 4 Hornigold TBS you will need a torrent client.

Torrent Metasearch.

Torrent verified by torlock.com.

comments/reviews
140
torrent contents

Costa! De Serie (Retail Seizoen 4) Hornigold TBS torrent

Costa! De Serie (Retail Seizoen 4) Hornigold TBS
 Covers + info
Costa! De serie - Seizoen 1 tot en met 4 info.nfo4.78 Kb torrent search
Torrent downloaded from AhaShare.com.txt59 bytes torrent search
Torrent downloaded from Demonoid.me.txt46 bytes torrent search

Costa! De Serie (Retail Seizoen 4) Hornigold TBS
 DVD 1
 Costa
VTS_03_2.VOB1024 Mb torrent search
VTS_03_3.VOB1024 Mb torrent search
VTS_03_1.VOB1024 Mb torrent search
VTS_03_4.VOB775.8 Mb torrent search
VTS_01_1.VOB33.55 Mb torrent search
VTS_01_0.VOB202 Kb torrent search
VTS_02_1.VOB158 Kb torrent search
VTS_02_0.VOB154 Kb torrent search
VTS_03_0.VOB154 Kb torrent search
VTS_03_0.BUP100 Kb torrent search
VTS_03_0.IFO100 Kb torrent search
VTS_01_0.BUP20 Kb torrent search
VTS_01_0.IFO20 Kb torrent search
VTS_02_0.IFO18 Kb torrent search
VTS_02_0.BUP18 Kb torrent search
VIDEO_TS.IFO14 Kb torrent search
VIDEO_TS.BUP14 Kb torrent search

Costa! De Serie (Retail Seizoen 4) Hornigold TBS
 DVD 2
 Costa
VTS_04_1.VOB979.63 Mb torrent search
VTS_05_1.VOB978.76 Mb torrent search
VTS_03_1.VOB970.07 Mb torrent search
VTS_06_1.VOB967.52 Mb torrent search
VTS_01_1.VOB33.55 Mb torrent search
VTS_01_0.VOB200 Kb torrent search
VTS_02_1.VOB158 Kb torrent search
VTS_04_0.VOB154 Kb torrent search
VTS_06_0.VOB154 Kb torrent search
VTS_02_0.VOB154 Kb torrent search
VTS_03_0.VOB154 Kb torrent search
VTS_05_0.VOB154 Kb torrent search
VTS_03_0.IFO42 Kb torrent search
VTS_03_0.BUP42 Kb torrent search
VTS_04_0.BUP42 Kb torrent search
VTS_04_0.IFO42 Kb torrent search
VTS_05_0.IFO42 Kb torrent search
VTS_05_0.BUP42 Kb torrent search
VTS_06_0.IFO40 Kb torrent search
VTS_06_0.BUP40 Kb torrent search
VTS_01_0.IFO20 Kb torrent search
VTS_01_0.BUP20 Kb torrent search
VTS_02_0.IFO18 Kb torrent search
VTS_02_0.BUP18 Kb torrent search
VIDEO_TS.BUP16 Kb torrent search
VIDEO_TS.IFO16 Kb torrent search

Costa! De Serie (Retail Seizoen 4) Hornigold TBS
 DVD 3
 Costa
VTS_03_2.VOB1024 Mb torrent search
VTS_03_1.VOB1024 Mb torrent search
VTS_03_3.VOB842.75 Mb torrent search
VTS_01_1.VOB33.55 Mb torrent search
VTS_01_0.VOB200 Kb torrent search
VTS_02_1.VOB158 Kb torrent search
VTS_02_0.VOB154 Kb torrent search
VTS_03_0.VOB154 Kb torrent search
VTS_03_0.IFO76 Kb torrent search
VTS_03_0.BUP76 Kb torrent search
VTS_01_0.IFO20 Kb torrent search
VTS_01_0.BUP20 Kb torrent search
VTS_02_0.BUP18 Kb torrent search
VTS_02_0.IFO18 Kb torrent search
VIDEO_TS.BUP12 Kb torrent search
VIDEO_TS.IFO12 Kb torrent search

Costa! De Serie (Retail Seizoen 4) Hornigold TBS
 DVD 4
 Costa
VTS_03_2.VOB1024 Mb torrent search
VTS_03_1.VOB1024 Mb torrent search
VTS_03_3.VOB854.25 Mb torrent search
VTS_01_1.VOB33.55 Mb torrent search
VTS_01_0.VOB194 Kb torrent search
VTS_02_1.VOB158 Kb torrent search
VTS_02_0.VOB154 Kb torrent search
VTS_03_0.VOB154 Kb torrent search
VTS_03_0.IFO76 Kb torrent search
VTS_03_0.BUP76 Kb torrent search
VTS_01_0.IFO20 Kb torrent search
VTS_01_0.BUP20 Kb torrent search
VTS_02_0.BUP18 Kb torrent search
VTS_02_0.IFO18 Kb torrent search
VIDEO_TS.BUP12 Kb torrent search
VIDEO_TS.IFO12 Kb torrent search

Sample info:
Duration: 00:26:55.72, start: 0.280000, bitrate: 5316 kb/s
Stream #0.0[0x1e0]: Video: mpeg2video, yuv420p, 720x576 [PAR 64:45 DAR 16:9], 8000 kb/s, 25.00 tb(r)
Stream #0.1[0x80]: Audio: ac3, 48000 Hz, stereo, 192 kb/s
screenshots
Images are auto generated please report any inapropriate images
 

related search cloud

 costa  video  seizoen  serie  hornigold  retail  downloaded  torrent  info  demonoid