Torrent Search | Torrent Meta Search | Widgets

Kung Fu Futebol Clube dublado

       
698.96 Mb
found 6 years ago
▲ seeders: 3 ▼ leechers:0
your vote:
real:
fake:
download torrent

Kung Fu Futebol Clube dublado torrent

Information about the torrent Kung Fu Futebol Clube dublado. Seeders, leechers and torrent status is updated everyday.

If you want to download the video torrent Kung Fu Futebol Clube dublado you will need a torrent client.

Torrent Metasearch.

Torrent verified by thepiratebay.se.

tracker
seeders
leechers
↓ torrent client compatible list

↑ hide torrent client compatible list

comments/reviews
140
torrent contents

Kung Fu Futebol Clube (dublado).avi torrent

Kung Fu Futebol Clube (dublado).avi698.96 Mb torrent search

Sample info:
Duration: 01:27:46.97, start: 0.000000, bitrate: 1113 kb/s
Stream #0.0: Video: mpeg4, yuv420p, 688x336 [PAR 1:1 DAR 43:21], 23.98 tb(r)
Stream #0.1: Audio: mp3, 48000 Hz, stereo, 128 kb/s
screenshots
Images are auto generated please report any inapropriate images
 

related search cloud

 dublado  clube  futebol  kung