Torrent Search | Torrent Meta Search | Widgets

Smurfs

       
35.26 Gb
found 3 years ago
▲ seeders: 17 ▼ leechers:22
your vote:
real:
fake:
Direct Download
THANK YOU
download torrent
  Direct Downloadsponsored

Smurfs torrent

Information about the torrent Smurfs. Seeders, leechers and torrent status is updated everyday.

If you want to download the tv torrent Smurfs you will need a torrent client.

Torrent Metasearch.

.

tracker
seeders
leechers
↓ torrent client compatible list

↑ hide torrent client compatible list

Help torrentproject.se to stay alive .
Add links of torrentproject.se in your favorite forum, blog, youtube, facebook, twitter etc.
reviews
140
torrent contents

Smurfs torrent

Smurfs
 Movie
Smurfs - The Magic Flute Movie.avi647.38 Mb torrent search

Smurfs
 SEASON 1
Smurfs - 1x01 - the astro smurf.avi167.58 Mb torrent search
Smurfs - 1x22 - Painter & Poet.avi140.14 Mb torrent search
Smurfs - 1x25 - The Fountain of Smurf.avi140.14 Mb torrent search
Smurfs - 1x19 - Sir Hefty.avi140.13 Mb torrent search
Smurfs - 1x04 - St Smurf & The Dragon.avi140.11 Mb torrent search
Smurfs - 1x10 - Soup A La Smurf.avi140.1 Mb torrent search
Smurfs - 1x38 - Smurfette's Dancing Shoes.avi140.1 Mb torrent search
Smurfs - 1x16 - Sideshow Smurfs.avi140.09 Mb torrent search
Smurfs - 1x31 - The Smurfette.avi140.08 Mb torrent search
Smurfs - 1x13 - Romeo and Smurfette.avi140.08 Mb torrent search
Smurfs - 1x07 - Bewitched, Bothered and Be-Smurfed.avi140.06 Mb torrent search
Smurfs - 1x09 - The Smurfs And The Howlibird.avi140.05 Mb torrent search
Smurfs - 1x36 - The Clockwork Smurf.avi140.02 Mb torrent search
Smurfs - 1x14 - The Magic Egg.avi90.64 Mb torrent search
Smurfs - 1x27 - Foul Weather Smurf.avi90.52 Mb torrent search
Smurfs - 1x11 - All That Glitters Isn't Smurf.avi70.1 Mb torrent search
Smurfs - 1x32 - Now You Smurf 'Em, Now You Don't.avi70.02 Mb torrent search
Smurfs - 1x02 - Jokey's Medicine.avi70.01 Mb torrent search
Smurfs - 1x30 - Gargamel The Generous.avi70 Mb torrent search
Smurfs - 1x39 - The Smurfs and the Money Tree.avi69.97 Mb torrent search
Smurfs - 1x35 - Smurf-Colored Glasses.avi69.97 Mb torrent search
Smurfs - 1x33 - Spelunking Smurfs.avi69.96 Mb torrent search
Smurfs - 1x18 - Paradise Smurfed.avi69.96 Mb torrent search
Smurfs - 1x15 - Smurphony in C.avi69.95 Mb torrent search

Sample info:
Duration: 01:14:33.20, start: 0.000000, bitrate: 1214 kb/s
Stream #0.0: Video: mpeg4, yuv420p, 304x232, 29.97 fps, 29.97 tbr, 29.97 tbn, 30k tbc
Stream #0.1: Audio: mp3, 22050 Hz, 2 channels, s16, 55 kb/s
screenshots
Smurfs torrent screenshot 269312FCE5ACADF36A4893BED9662E432BF1E9BC Smurfs torrent screenshot 269312fce5acadf36a4893bed9662e432bf1e9bc torrent Smurfs
Smurfs images are auto generated please report any inapropriate images
 

related search cloud

 smurfs  smurf  smurfette  magic  movie  smurfed  medicine  jokey  glitters  foul