Torrent Search | Torrent Meta Search | Widgets

CzechAV CzechCasting Petra 720p

544.06 Mb
found 4 years ago
▲ seeders: 0 ▼ leechers:1
your vote:
real:
fake:
download torrent

CzechAV CzechCasting Petra 720p torrent

Information about the torrent CzechAV CzechCasting Petra 720p. Seeders, leechers and torrent status is updated several times per day.

If you want to download the adult torrent CzechAV CzechCasting Petra 720p you will need a torrent client.

Torrent Metasearch.

No trackers with seeders or leechers have been found, this doesn't mean that the torrent CzechAV CzechCasting Petra 720p is dead
comments/reviews
140
torrent contents

CzechAV - CzechCasting - Petra [720p].wmv torrent

CzechAV - CzechCasting - Petra [720p].wmv544.06 Mb torrent search

Sample info:
Duration: 00:23:57.80, start: 0.000000, bitrate: 3174 kb/s
Stream #0.0: Video: wmv2, yuv420p, 1280x720, 25 tbr, 1k tbn, 1k tbc
Stream #0.1: Audio: wmav2, 48000 Hz, 2 channels, s16, 127 kb/s
screenshots
Images are auto generated please report any inapropriate images
 

related search cloud

 petra  czechcasting  czechav