Torrent Search | Torrent Meta Search | Widgets

Battle royale DVDRip Spanish

698.6 Mb
found 4 years ago
▲ seeders: 1 ▼ leechers:0
your vote:
real:
fake:
Direct Download
THANK YOU
download torrent
  Direct Downloadsponsored

Battle royale DVDRip Spanish torrent

Information about the torrent Battle royale DVDRip Spanish. Seeders, leechers and torrent status is updated several times per day.

If you want to download the dvdrip torrent Battle royale DVDRip Spanish you will need a torrent client.

Torrent Metasearch.

tracker
seeders
leechers
Help torrentproject.se to stay alive .
Add links of torrentproject.se in your favorite forum, blog, youtube, facebook, twitter etc.
reviews
140
torrent contents

Battle royale[DVDrip][Spanish]] torrent

Battle royale[DVDrip][Spanish][www.lokotorrents.com]
Battle royale[DVDrip][Spanish][www.lokotorrents.com].avi698.6 Mb torrent search

Sample info:
Duration: 01:53:30.04, start: 0.000000, bitrate: 860 kb/s
Stream #0.0: Video: mpeg4, yuv420p, 512x288 [PAR 1:1 DAR 16:9], 25 tbr, 25 tbn, 25 tbc
Stream #0.1: Audio: mp3, 44100 Hz, 2 channels, s16, 108 kb/s
screenshots
Battle royale DVDRip Spanish torrent screenshot 2A5108F757C5FF7F8D88C676830B4D90B659301B Battle royale DVDRip Spanish torrent screenshot 2a5108f757c5ff7f8d88c676830b4d90b659301b torrent Battle royale DVDRip Spanish
Battle royale[DVDrip][Spanish]] images are auto generated please report any inapropriate images
 

related search cloud

 lokotorrents  spanish  dvdrip  royale  battle