Torrent Search | Torrent Meta Search | Widgets

Alone In Berlin (2016) 1080p YTS AG

1.57 Gb
found 10 days ago
▲ seeders: 370 ▼ leechers:55
your vote:
real:
fake:
download torrent

Alone In Berlin (2016) 1080p YTS AG torrent

Information about the torrent Alone In Berlin (2016) 1080p YTS AG. Seeders, leechers and torrent status is updated everyday.

If you want to download the hdrip torrent Alone In Berlin (2016) 1080p YTS AG you will need a torrent client.

Torrent Metasearch.

tracker
seeders
leechers
↓ torrent client compatible list

↑ hide torrent client compatible list

torrent contents

Alone In Berlin (2016) [1080p] [YTS.AG] torrent

Alone In Berlin (2016) [1080p] [YTS.AG]
WWW.YTS.AG.jpg103.35 Kb torrent search
Alone.In.Berlin.2016.1080p.BluRay.x264-[YTS.AG].mp41.57 Gb torrent search

Sample info:
Duration: 01:42:52.42, start: 0.042667, bitrate: 2186 kb/s
Stream #0:0	: Video: h264 (High) (avc1 / 0x31637661), yuv420p, 1920x800 [SAR 1:1 DAR 12:5], 2048 kb/s, 24 fps, 24 tbr, 12288 tbn, 48 tbc (default)
handler_name	: VideoHandler
Stream #0:1	: Audio: aac (LC) (mp4a / 0x6134706D), 48000 Hz, stereo, fltp, 131 kb/s (default)
handler_name	: SoundHandler
screenshots
Images are auto generated please report any inapropriate images
 

related search cloud

 alone  berlin  bluray