Torrent Search | Torrent Meta Search | Widgets

ultimateLa Belle Saison (2015) FRENCH DVDRip XviD

       
705.56 Mb
found 1 year ago
▲ seeders: 15 ▼ leechers:0
your vote:
real:
fake:
download torrent

ultimateLa Belle Saison (2015) FRENCH DVDRip XviD torrent

Information about the torrent ultimateLa Belle Saison (2015) FRENCH DVDRip XviD. Seeders, leechers and torrent status is updated several times per day.

If you want to download the tv torrent ultimateLa Belle Saison (2015) FRENCH DVDRip XviD you will need a torrent client.

Torrent Metasearch.

Torrent verified by thepiratebay.se.

tracker
seeders
leechers
↓ torrent client compatible list

↑ hide torrent client compatible list

torrent contents

[ultimate-torrent.com] La.Belle.Saison.2015.FRENCH.DVDRip.XviD.avi torrent

[ultimate-torrent.com] La.Belle.Saison.2015.FRENCH.DVDRip.XviD.avi705.56 Mb torrent search

Sample info:
Duration: 01:40:57.40, start: 0.000000, bitrate: 977 kb/s
Stream #0:0: Video: mpeg4 (Simple Profile) (xvid / 0x64697678), yuv420p, 640x272 [SAR 1:1 DAR 40:17], 839 kb/s, 25 fps, 25 tbr, 25 tbn, 25 tbc
Stream #0:1: Audio: mp3 (U[0][0][0] / 0x0055), 48000 Hz, stereo, s16p, 128 kb/s
screenshots
Images are auto generated please report any inapropriate images
 

related search cloud

 dvdrip  xvid  french  saison  torrent  belle  ultimate