Torrent Search | Torrent Meta Search | Widgets

Poison Ivy The New Seduction (1997) Unrated BRRip 720p x264 Dual Audio Hindi+English by [email protected] ExD Exclusive

       
900.63 Mb
found 4 years ago
▲ seeders: 1 ▼ leechers:1
your vote:
real:
fake:

Poison Ivy: The New Seduction

1997 · 93 min · 4.8/10 (3k votes) in imdb
Drama, Thriller
All the rules are about to be broken.
Director: Kurt Voss
Writer: Karen Kelly
A sinister seductress vows to destroy a suburban family.
download torrent

Poison Ivy The New Seduction (1997) Unrated BRRip 720p x264 Dual Audio Hindi+English by [email protected] ExD Exclusive torrent

Information about the torrent Poison Ivy The New Seduction (1997) Unrated BRRip 720p x264 Dual Audio Hindi+English by [email protected] ExD Exclusive. Seeders, leechers and torrent status is updated several times per day.

If you want to download the hdrip torrent Poison Ivy The New Seduction (1997) Unrated BRRip 720p x264 Dual Audio Hindi+English by [email protected] ExD Exclusive you will need a torrent client.

Torrent Metasearch.

Torrent verified by thepiratebay.se.

tracker
seeders
leechers
↓ torrent client compatible list

↑ hide torrent client compatible list

comments/reviews
140
torrent contents

Poison Ivy.The New Seduction.[1997].[Unrated].BRRip.720p.x264 Dual Audio [Hindi+English].by [email protected] [ExD Exclusive] torrent

Poison Ivy.The New Seduction.[1997].[Unrated].BRRip.720p.x264 Dual Audio [Hindi+English].by [email protected] [ExD Exclusive]
Poison Ivy.The New Seduction.[1997].[Unrated].BRRip.720p.x264 Dual Audio [Hindi+English].by [email protected] [ExD Exclusive].mkv882.88 Mb torrent search

Poison Ivy.The New Seduction.[1997].[Unrated].BRRip.720p.x264 Dual Audio [Hindi+English].by [email protected] [ExD Exclusive]
 Sample
Poison Ivy.The New Seduction.[1997].Sample.mkv17.52 Mb torrent search

Poison Ivy.The New Seduction.[1997].[Unrated].BRRip.720p.x264 Dual Audio [Hindi+English].by [email protected] [ExD Exclusive]
Cover.jpg184.97 Kb torrent search
Poison Ivy.The New Seduction.[1997].[Unrated].BRRip.720p.x264 Dual Audio [Hindi+English].by [email protected] [ExD Exclusive].srt52.28 Kb torrent search

Sample info:
Duration: 01:34:15.28, start: 0.000000, bitrate: 448 kb/s
Stream #0.0(eng): Video: h264, yuv420p, 1280x680 [PAR 1:1 DAR 32:17], 25 fps, 25 tbr, 1k tbn, 50 tbc
title	: [email protected]
Stream #0.1(eng): Audio: ac3, 48000 Hz, 5.1, s16, 256 kb/s
title	: [email protected]
Stream #0.2(hin): Audio: ac3, 48000 Hz, stereo, s16, 192 kb/s
title	: [email protected]
screenshots
Images are auto generated please report any inapropriate images
 

related search cloud

 poison  seduction  english  exclusive  hindi  rtik  audio  dual  unrated  brrip