Torrent Search | Torrent Meta Search | Widgets

Drama Collection 022512 283 Kotone Amamiya

       
451.64 Mb
found 3 years ago
▲ seeders: 1 ▼ leechers:1
your vote:
real:
fake:
Direct Download
THANK YOU
download torrent
  Direct Downloadsponsored

Drama Collection 022512 283 Kotone Amamiya torrent

Information about the torrent Drama Collection 022512 283 Kotone Amamiya. A torrent file stores metadata that can be used from a BitTorrent client.

If you want to download the video torrent Drama Collection 022512 283 Kotone Amamiya you will need a torrent client.

Torrent Metasearch.

Torrent verified by kat.ph.

tracker
seeders
leechers
↓ torrent client compatible list

↑ hide torrent client compatible list

Help torrentproject.se to stay alive .
Add links of torrentproject.se in your favorite forum, blog, youtube, facebook, twitter etc.
reviews
140
torrent contents

Drama Collection - 022512-283 - Kotone Amamiya.avi torrent

Drama Collection - 022512-283 - Kotone Amamiya.avi451.64 Mb torrent search

Sample info:
Duration: 00:55:43.67, start: 0.000000, bitrate: 1133 kb/s
Stream #0.0: Video: mpeg4, yuv420p, 704x396 [PAR 1:1 DAR 16:9], 29.97 tbr, 29.97 tbn, 29.97 tbc
Stream #0.1: Audio: mp3, 48000 Hz, 2 channels, s16, 128 kb/s
screenshots
Drama Collection 022512 283 torrent screenshot 2D07A9156EC173D9C5F141CD919EC067D01CB744 Drama Collection 022512 283  torrent screenshot 2d07a9156ec173d9c5f141cd919ec067d01cb744 torrent Drama Collection 022512 283
Drama Collection - 022512-283 - Kotone Amamiya.avi images are auto generated please report any inapropriate images
 

related search cloud

 amamiya  kotone  collection  drama