Torrent Search | Torrent Meta Search | Widgets

老肥@第一会所@WowPorn Connie A Daydream Together

882.25 Mb
found 1 year ago
▲ seeders: 1 ▼ leechers:2
your vote:
real:
fake:
THANK YOU
download torrent

老肥@第一会所@WowPorn Connie A Daydream Together torrent

Information about the torrent 老肥@第一会所@WowPorn Connie A Daydream Together. A torrent file stores metadata that can be used from a BitTorrent client.

If you want to download the video torrent 老肥@第一会所@WowPorn Connie A Daydream Together you will need a torrent client.

Torrent Metasearch.

tracker
seeders
leechers
↓ torrent client compatible list

↑ hide torrent client compatible list

reviews
140
torrent contents

老肥@第一会所@WowPorn - Connie A Daydream Together torrent

老肥@第一会所@WowPorn - Connie A Daydream Together
1.jpg144.06 Kb torrent search
2.jpg163.69 Kb torrent search
3.jpg177.88 Kb torrent search
4.jpg159.61 Kb torrent search
5.jpg402.89 Kb torrent search
SIS001影视联盟.gif35.63 Kb torrent search
wowp.13.08.01.connie.a.daydream.together.mp4879.6 Mb torrent search
第一会所 宣传.txt651 bytes torrent search
第一会所 宣传图.jpg169.75 Kb torrent search
第一会所-综合社区.url250 bytes torrent search
老肥@www.sis001.com.url250 bytes torrent search

Sample info:
Duration: 00:23:17.13, start: 0.000000, bitrate: 5281 kb/s
Stream #0:0	: Video: h264 (High) (avc1 / 0x31637661), yuv420p, 1920x1080, 5167 kb/s, 29.97 fps, 29.97 tbr, 30k tbn, 59.94 tbc
handler_name	: VideoHandler
Stream #0:1	: Audio: aac (mp4a / 0x6134706D), 44100 Hz, stereo, s16, 106 kb/s
handler_name	: SoundHandler
screenshots
老肥 第一会所 WowPorn Connie torrent screenshot 2D0BA6A9C3C6F071015E16AD96F14FF9B69A1263 老肥 第一会所 WowPorn Connie  torrent screenshot 2d0ba6a9c3c6f071015e16ad96f14ff9b69a1263 torrent 老肥 第一会所 WowPorn Connie
Images are auto generated please report any inapropriate images
you may be interested in these torrents seeders leechers size found
老肥@第一会所@WowPorn Connie Romantic Getaway 0 3 969.25 Mb 10 months ago

0.jpg 1.jpg 10.jpg 11.jpg 12.jpg


 

related search cloud

 together  daydream  connie  wowp  wowporn