Torrent Search | Torrent Meta Search | Widgets

[email protected]@WowPorn Connie A Daydream Together

882.25 Mb
found 3 years ago
▲ seeders: 0 ▼ leechers:1
your vote:
real:
fake:
download torrent

[email protected]@WowPorn Connie A Daydream Together torrent

Information about the torrent [email protected]@WowPorn Connie A Daydream Together. A torrent file stores metadata that can be used from a BitTorrent client.

If you want to download the adult torrent [email protected]@WowPorn Connie A Daydream Together you will need a torrent client.

Torrent Metasearch.

No trackers with seeders or leechers have been found, this doesn't mean that the torrent [email protected]@WowPorn Connie A Daydream Together is dead
comments/reviews
140
torrent contents

[email protected]@WowPorn - Connie A Daydream Together torrent

[email protected]@WowPorn - Connie A Daydream Together
1.jpg144.06 Kb torrent search
2.jpg163.69 Kb torrent search
3.jpg177.88 Kb torrent search
4.jpg159.61 Kb torrent search
5.jpg402.89 Kb torrent search
SIS001影视联盟.gif35.63 Kb torrent search
wowp.13.08.01.connie.a.daydream.together.mp4879.6 Mb torrent search
第一会所 宣传.txt651 bytes torrent search
第一会所 宣传图.jpg169.75 Kb torrent search
第一会所-综合社区.url250 bytes torrent search
[email protected]250 bytes torrent search

Sample info:
Duration: 00:23:17.13, start: 0.000000, bitrate: 5281 kb/s
Stream #0:0	: Video: h264 (High) (avc1 / 0x31637661), yuv420p, 1920x1080, 5167 kb/s, 29.97 fps, 29.97 tbr, 30k tbn, 59.94 tbc
handler_name	: VideoHandler
Stream #0:1	: Audio: aac (mp4a / 0x6134706D), 44100 Hz, stereo, s16, 106 kb/s
handler_name	: SoundHandler
screenshots
Images are auto generated please report any inapropriate images
 

related search cloud

 together  daydream  connie  wowp  wowporn