Torrent Search | Torrent Meta Search | Widgets

NUDIST HDV JR PAGEANT GOLDAR

721.1 Mb
found 4 years ago
▲ seeders: 2 ▼ leechers:2
your vote:
real:
fake:
Direct Download
THANK YOU
download torrent
  Direct Downloadsponsored

NUDIST HDV JR PAGEANT GOLDAR torrent

Information about the torrent NUDIST HDV JR PAGEANT GOLDAR. Seeders, leechers and torrent status is updated everyday.

If you want to download the video torrent NUDIST HDV JR PAGEANT GOLDAR you will need a torrent client.

Torrent Metasearch.

tracker
seeders
leechers
↓ torrent client compatible list

↑ hide torrent client compatible list

Help torrentproject.se to stay alive .
Add links of torrentproject.se in your favorite forum, blog, youtube, facebook, twitter etc.
reviews
anonymous 08 Dec 2013, 04:12:22
purenudism sexn
140
torrent contents

NUDIST HDV JR PAGEANT-GOLDAR.avi torrent

NUDIST_HDV_JR_PAGEANT-GOLDAR.avi721.1 Mb torrent search

Sample info:
Duration: 01:00:16.77, start: 0.000000, bitrate: 1672 kb/s
Stream #0.0: Video: mpeg4, yuv420p, 640x480 [PAR 1:1 DAR 4:3], 23.98 fps, 23.98 tbr, 23.98 tbn, 23.98 tbc
Stream #0.1: Audio: mp3, 48000 Hz, 2 channels, s16, 160 kb/s
screenshots
NUDIST HDV JR PAGEANT torrent screenshot 2DCAE6D2AF843E19EFAA28BA368BE45B32DF3E8B NUDIST HDV JR PAGEANT  torrent screenshot 2dcae6d2af843e19efaa28ba368be45b32df3e8b torrent NUDIST HDV JR PAGEANT
NUDIST HDV JR PAGEANT-GOLDAR.avi images are auto generated please report any inapropriate images
you may be interested in these torrents seeders leechers size found
nudist hdv hd video 3 1 27.57 Mb 3 years ago

brunettegoddess2 09_1.jpg readme.txt [www.candid-hd.com]nudist_brunette_goddess1_WMVHD960x540p.wmv 0


NUDIST HDV JR PAGEANT GOLDAR 2 3 721.1 Mb 3 years ago

NUDIST_HDV_JR_PAGEANT-GOLDAR.avi


NC12 B Young Teen Jr Pageant Contest (2003) 61min DVD Nudist HDV purenudism russianbare Sunat NatPlus 2 1 800.11 Mb 2 years ago

NC12-B Young Teen Jr. Pageant Contest 2003 (61min) DVD Nudist-HDV purenudism russianbare Sunat NatPlus.avi


 

related search cloud

 goldar  pageant  nudist