Torrent Search | Torrent Meta Search | Widgets

Creamy Holes 2 Blue Angel

       
265.47 Mb
found 3 years ago
▲ seeders: 0 ▼ leechers:2
your vote:
real:
fake:
Direct Download
THANK YOU
download torrent
  Direct Downloadsponsored

Creamy Holes 2 Blue Angel torrent

Information about the torrent Creamy Holes 2 Blue Angel. Seeders, leechers and torrent status is updated everyday.

If you want to download the video torrent Creamy Holes 2 Blue Angel you will need a torrent client.

Torrent Metasearch.

Torrent verified by kat.ph.

tracker
seeders
leechers
↓ torrent client compatible list

↑ hide torrent client compatible list

Help torrentproject.se to stay alive .
Add links of torrentproject.se in your favorite forum, blog, youtube, facebook, twitter etc.
reviews
140
torrent contents

Creamy Holes 2 - Blue Angel.avi torrent

Creamy Holes 2 - Blue Angel.avi265.47 Mb torrent search

Sample info:
Duration: 00:21:20.36, start: 0.000000, bitrate: 1739 kb/s
Stream #0.0: Video: mpeg4, yuv420p, 576x320 [PAR 1:1 DAR 9:5], 25 tbr, 25 tbn, 25 tbc
Stream #0.1: Audio: mp3, 48000 Hz, 2 channels, s16, 129 kb/s
screenshots
Creamy Holes 2 Blue torrent screenshot 2E68A58D11D6346983ACA3EB0B03EFDF47F19859 Creamy Holes 2 Blue  torrent screenshot 2e68a58d11d6346983aca3eb0b03efdf47f19859 torrent Creamy Holes 2 Blue
Creamy Holes 2 - Blue Angel.avi images are auto generated please report any inapropriate images
 

related search cloud

 angel  blue  holes  creamy