Torrent Search | Torrent Meta Search | Widgets

bp 13 06 20 lola taylor elegantly nude

1.64 Gb
found 1 year ago
▲ seeders: 2 ▼ leechers:1
your vote:
real:
fake:
Direct Download
THANK YOU
download torrent
  Direct Downloadsponsored

bp 13 06 20 lola taylor elegantly nude torrent

Information about the torrent bp 13 06 20 lola taylor elegantly nude. Seeders, leechers and torrent status is updated everyday.

If you want to download the video torrent bp 13 06 20 lola taylor elegantly nude you will need a torrent client.

Torrent Metasearch.

tracker
seeders
leechers
↓ torrent client compatible list

↑ hide torrent client compatible list

Help torrentproject.se to stay alive .
Add links of torrentproject.se in your favorite forum, blog, youtube, facebook, twitter etc.
reviews
140
torrent contents

bp.13.06.20.lola.taylor.elegantly.nude.mp4 torrent

bp.13.06.20.lola.taylor.elegantly.nude.mp41.64 Gb torrent search

Sample info:
Duration: 00:37:49.84, start: 0.000000, bitrate: 6198 kb/s
Stream #0.0(eng): Video: h264 (High), yuv420p, 1920x1080 [PAR 1:1 DAR 16:9], 6001 kb/s, 50 fps, 50 tbr, 50k tbn, 100 tbc
creation_time	: 2013-06-21 05:03:12
Stream #0.1(eng): Audio: aac, 48000 Hz, stereo, s16, 189 kb/s
creation_time	: 2013-06-21 05:03:12
screenshots
bp 13 06 20 torrent screenshot 2E93D18F846EC65617AF972D49CCEDDC45F72CF7 bp 13 06 20  torrent screenshot 2e93d18f846ec65617af972d49cceddc45f72cf7 torrent bp 13 06 20
bp.13.06.20.lola.taylor.elegantly.nude.mp4 images are auto generated please report any inapropriate images
you may be interested in these torrents seeders leechers size found
NikeのB@第一会所@Lola Taylor 1 10 5.83 Gb 6 months ago

Elegantly.jpg Happy.jpg Incredible.jpg Lola.jpg Nasty.j


Elegantly Nude Lola Taylor (2013) HD 1080p     1 1 1.64 Gb 1 year ago

bp.13.06.20.lola.taylor.elegantly.nude.mp4


Lola Taylor Elegantly Nude 1080p 0 2 1.64 Gb 1 year ago

Torrent downloaded from PublicHash.com.txt bp.13.06.20.lola.taylor.elegantly.nude.mp4


 

related search cloud

 nude  elegantly  taylor  lola