Torrent Search | Torrent Meta Search | Widgets

Wifecrazy Mom Son 5

198.2 Mb
found 2 years ago
▲ seeders: 6 ▼ leechers:3
your vote:
real:
fake:
THANK YOU
download torrent
  Direct Downloadsponsored

Wifecrazy Mom Son 5 torrent

Information about the torrent Wifecrazy Mom Son 5. Seeders, leechers and torrent status is updated several times per day.

If you want to download the video torrent Wifecrazy Mom Son 5 you will need a torrent client.

Torrent Metasearch.

tracker
seeders
leechers
↓ torrent client compatible list

↑ hide torrent client compatible list

reviews
140
torrent contents

Wifecrazy - Mom Son 5 torrent

Wifecrazy - Mom Son 5
mom_son_5.wmv198.2 Mb torrent search

Sample info:
Duration: 00:13:39.47, start: 0.000000, bitrate: 2028 kb/s
Stream #0.0: Audio: wmav2, 44100 Hz, 2 channels, s16, 64 kb/s
Stream #0.1: Video: wmv3 (Main), yuv420p, 640x480, 2000 kb/s, PAR 4:3 DAR 16:9, 29.97 tbr, 1k tbn, 1k tbc
screenshots
Wifecrazy Mom Son 5 torrent screenshot 2F5F299C72905BD64E7009DECC4FDF01D6B316D3 Wifecrazy Mom Son 5 torrent screenshot 2f5f299c72905bd64e7009decc4fdf01d6b316d3 torrent Wifecrazy Mom Son 5
Wifecrazy - Mom Son 5 images are auto generated please report any inapropriate images
you may be interested in these torrents seeders leechers size found
WifeCrazy Mom S Ass Licking Hj 2 0 174.88 Mb 1 year ago

Torrent downloaded from PublicHash.com.txt WifeCrazy Mom S Ass Licking Hj.wmv


WifeCrazy Mom S Ass Licking Hj 1 1 174.87 Mb 1 year ago

WifeCrazy Mom S Ass Licking Hj.wmv


 

related search cloud

 wifecrazy