Torrent Search | Torrent Meta Search | Widgets

Mary À Tout Prix

700.18 Mb
found 2 years ago
▲ seeders: 38 ▼ leechers:4
your vote:
real:
fake:
THANK YOU
download torrent
  Direct Downloadsponsored

Mary À Tout Prix torrent

Information about the torrent Mary À Tout Prix. Seeders, leechers and torrent status is updated several times per day.

If you want to download the video torrent Mary À Tout Prix you will need a torrent client.

Torrent Metasearch.

tracker
seeders
leechers
↓ torrent client compatible list

↑ hide torrent client compatible list

reviews
140
torrent contents

Mary À Tout Prix.avi torrent

Mary À Tout Prix.avi700.18 Mb torrent search

Sample info:
Duration: 01:52:34.28, start: 0.000000, bitrate: 869 kb/s
Stream #0.0: Video: mpeg4, yuv420p, 576x304 [PAR 1:1 DAR 36:19], 25 fps, 25 tbr, 25 tbn, 30k tbc
Stream #0.1: Audio: mp3, 48000 Hz, 2 channels, s16, 96 kb/s
screenshots
Mary À Tout Prix torrent screenshot 32D6C1692DEBB472968E7909C312A08A8999F044 Mary À Tout Prix torrent screenshot 32d6c1692debb472968e7909c312a08a8999f044 torrent Mary À Tout Prix
Images are auto generated please report any inapropriate images
you may be interested in these torrents seeders leechers size found
Mary à tout prix 5 0 700.18 Mb 3 years ago

Mary à tout prix.avi


Mary A Tout Prix FR DVDRip XviD OldNavy31 4 0 1000.8 Mb 4 years ago

Mary A Tout Prix FR DvDRiP XviD.avi Mary A Tout Prix(Affiche).jpg Mary A Tout


Mary a tout prix French DVDRip XviD 0 2 764.25 Mb 4 years ago

Mary a tout prix.French-dvdrip-xvid.avi


une nounou d enfer saison4 0 1 4.46 Gb 4 years ago

Nanny,.The.4x01.LAmour.Est.Aveugle.(Part.2).FR.DVB.XviD-Azerty.[emule-island.com].


 

related search cloud

 prix  tout  mary