Torrent Search | Torrent Meta Search | Widgets

oggy et les cafards

       
7.67 Gb
found 6 years ago
▲ seeders: 0 ▼ leechers:1
your vote:
real:
fake:
download torrent

oggy et les cafards torrent

Information about the torrent oggy et les cafards. Seeders, leechers and torrent status is updated several times per day.

If you want to download the video torrent oggy et les cafards you will need a torrent client.

Torrent Metasearch.

.

tracker
seeders
leechers
↓ torrent client compatible list

↑ hide torrent client compatible list

comments/reviews
anonymous 31 May 2015, 02:05:47
super
140
torrent contents

oggy et les cafards torrent

oggy_et_les_cafards
000 - Generique Debut.avi5.23 Mb torrent search
001 - Chocolat amer.avi50.27 Mb torrent search
002 - Coup de cafard.avi50.33 Mb torrent search
003 - Les frites.avi50.33 Mb torrent search
004 - Mission Oggy.avi50.33 Mb torrent search
005 - Tchao tympan.avi50.32 Mb torrent search
006 - Le patient.avi50.24 Mb torrent search
007 - Rythme & bleus.avi50.46 Mb torrent search
008 - Plus dure sera la chute.avi50.31 Mb torrent search
009 - Petit petit petit.avi50.31 Mb torrent search
010 - Joyeux anniversaire.avi50.32 Mb torrent search
011 - La metamorphose.avi50.31 Mb torrent search
012 - Jalousie.avi50.31 Mb torrent search
013 - Vendredi 13.avi50.31 Mb torrent search
014 - Sois zen avec loseille.avi50.27 Mb torrent search
015 - Dent de lait.avi50.32 Mb torrent search
016 - Une vie duraille.avi50.12 Mb torrent search
017 - Grignotator.avi50.32 Mb torrent search
018 - 37.2 toute la journée.avi50.31 Mb torrent search
019 - Soigne ton code.avi50.32 Mb torrent search
020 - Cherchez lintrus!.avi50.29 Mb torrent search
021 - Jolie poupée.avi50.31 Mb torrent search
022 - La solitude.avi50.32 Mb torrent search
023 - Oggy et les cafards géants.avi50.28 Mb torrent search
024 - Oggy et les bébés.avi50.31 Mb torrent search
025 - Comme des chiens.avi50.31 Mb torrent search
026 - Jeux de carpes.avi50.17 Mb torrent search
027 - Rock nroll altitude.avi50.31 Mb torrent search
028 - Un diner en ville.avi50.31 Mb torrent search
029 - Le régime dOggy.avi50.29 Mb torrent search
030 - La tête et les muscles.avi48.89 Mb torrent search
031 - Voyage dans le temps.avi50.32 Mb torrent search
032 - Le ticket de loto.avi50.32 Mb torrent search
033 - Globulopolis.avi50.32 Mb torrent search
034 - Occupé.avi50.31 Mb torrent search
035 - Maison a louer.avi50.32 Mb torrent search
036 - Lappat se rebiffe.avi50.28 Mb torrent search
037 - Aux secousses.avi50.31 Mb torrent search
038 - Le caillou qui voulait nager.avi50.29 Mb torrent search
039 - Les cafards de lespace.avi50.31 Mb torrent search
040 - Mamie jubile.avi50.31 Mb torrent search
041 - Le dictateur.avi50.31 Mb torrent search
042 - Souvenir souvenir.avi50.3 Mb torrent search
043 - Remue meninges.avi50.34 Mb torrent search
044 - Kit en tas.avi50.27 Mb torrent search
045 - Tremblez manèges.avi50.5 Mb torrent search
046 - Coquilles en stock.avi50.36 Mb torrent search
047 - Micro craignos.avi50.23 Mb torrent search
048 - Super cafard.avi50.29 Mb torrent search
049 - Attention Travaux.avi50.33 Mb torrent search
050 - Canicule.avi50.29 Mb torrent search
051 - La revolte des canards.avi50.09 Mb torrent search
052 - Cest pas du pipeau.avi50.23 Mb torrent search
053 - Chasse toujours.avi50.31 Mb torrent search
054 - Oggy contre les fantomes.avi50.25 Mb torrent search
055 - Qui perd gagne.avi50.28 Mb torrent search
056 - Balle au but.avi50.27 Mb torrent search
057 - Les joies du plein air.avi50.28 Mb torrent search
058 - La tirelire.avi50.13 Mb torrent search
059 - La trève de Noel.avi50.61 Mb torrent search
060 - Le clone dOggy.avi50.31 Mb torrent search
061 - Complètement accro.avi50.33 Mb torrent search
062 - A tout berzingue.avi50.33 Mb torrent search
063 - La nuit du grime.avi50.28 Mb torrent search
064 - Le jardin des supplices.avi50.32 Mb torrent search
065 - Pris au piège.avi50.3 Mb torrent search
066 - Tout le charme dun week end.avi50.31 Mb torrent search
067 - La multiplcation des cancrelats.avi50.1 Mb torrent search
068 - Les 3 voeux.avi50.21 Mb torrent search
069 - Voyage virtuel.avi50.58 Mb torrent search
070 - Mite des neiges.avi50.38 Mb torrent search
071 - Le chat de la voisine.avi50.3 Mb torrent search
072 - Première à lopéra.avi50.29 Mb torrent search
073 - Lune de miel.avi50.26 Mb torrent search

Sample info:
Duration: 00:06:27.76, start: 0.000000, bitrate: 1127 kb/s
Stream #0.0: Video: mpeg4, yuv420p, 640x480 [PAR 1:1 DAR 4:3], 25 tbr, 25 tbn, 25 tbc
Stream #0.1: Audio: mp3, 44100 Hz, 2 channels, s16, 128 kb/s
screenshots
Images are auto generated please report any inapropriate images
 

related search cloud

 oggy  cafards  petit  cafard  doggy  tout  voyage  souvenir  travaux  attention