Torrent Search | Torrent Meta Search | Widgets

Indiana Jones and the Kingdom of the Crystal Skull (2008) 1080p

1.65 Gb
found 2 years ago
▲ seeders: 7 ▼ leechers:1
your vote:
real:
fake:
Direct Download
THANK YOU
download torrent
  Direct Downloadsponsored

Indiana Jones and the Kingdom of the Crystal Skull (2008) 1080p torrent

Information about the torrent Indiana Jones and the Kingdom of the Crystal Skull (2008) 1080p. Seeders, leechers and torrent status is updated everyday.

If you want to download the hdrip torrent Indiana Jones and the Kingdom of the Crystal Skull (2008) 1080p you will need a torrent client.

Torrent Metasearch.

tracker
seeders
leechers
↓ torrent client compatible list

↑ hide torrent client compatible list

Help torrentproject.se to stay alive .
Add links of torrentproject.se in your favorite forum, blog, youtube, facebook, twitter etc.
reviews
140
torrent contents

Indiana Jones and the Kingdom of the Crystal Skull (2008) [1080p] torrent

Indiana Jones and the Kingdom of the Crystal Skull (2008) [1080p]
Indiana.Jones.And.The.Kingdom.of.the.Crystal.Skull.2008.1080p.BrRip.x264.YIFY.mp41.65 Gb torrent search
WWW.YIFY-TORRENTS.COM.jpg127.61 Kb torrent search
Indiana.Jones.And.The.Kingdom.of.the.Crystal.Skull.2008.1080p.BrRip.x264.YIFY.srt76.47 Kb torrent search

Sample info:
Duration: 02:02:32.51, start: 0.000000, bitrate: 1930 kb/s
Stream #0.0	: Video: h264 (High), yuv420p, 1920x800 [PAR 1:1 DAR 12:5], 1831 kb/s, 23.98 fps, 23.98 tbr, 96k tbn, 47.95 tbc
creation_time	: 2012-08-21 23:28:38
Stream #0.1(eng): Audio: aac, 48000 Hz, stereo, s16, 95 kb/s
creation_time	: 2012-08-21 23:31:59
screenshots
Indiana Jones and the torrent screenshot 35CD4979FBC4BEB2EA06B6E3267C3BA2DD4A3FFF Indiana Jones and the  torrent screenshot 35cd4979fbc4beb2ea06b6e3267c3ba2dd4a3fff torrent Indiana Jones and the
Indiana Jones and the Kingdom of the Crystal Skull (2008) [1080p] images are auto generated please report any inapropriate images
 

related search cloud

 skull  yify  indiana  crystal  kingdom  jones  brrip  torrents