Torrent Search | Torrent Meta Search | Widgets

PervsOnPatrol Balcony Banging Megan Salinas

897.55 Mb
found 1 year ago
▲ seeders: 1 ▼ leechers:7
your vote:
real:
fake:
Direct Download
THANK YOU
download torrent
  Direct Downloadsponsored

PervsOnPatrol Balcony Banging Megan Salinas torrent

Information about the torrent PervsOnPatrol Balcony Banging Megan Salinas. A torrent file stores metadata that can be used from a BitTorrent client.

If you want to download the video torrent PervsOnPatrol Balcony Banging Megan Salinas you will need a torrent client.

Torrent Metasearch.

tracker
seeders
leechers
↓ torrent client compatible list

↑ hide torrent client compatible list

Help torrentproject.se to stay alive .
Add links of torrentproject.se in your favorite forum, blog, youtube, facebook, twitter etc.
reviews
140
torrent contents

PervsOnPatrol - Balcony Banging - Megan-Salinas torrent

PervsOnPatrol - Balcony Banging - Megan-Salinas
RARBG.com.txt34 bytes torrent search
PervsOnPatrol - Balcony Banging - Megan Salinas.wmv897.55 Mb torrent search

Sample info:
Duration: 00:45:15.86, start: 0.000000, bitrate: 2772 kb/s
Stream #0:0: Video: wmv2 (WMV2 / 0x32564D57), yuv420p, 854x480, 29.97 tbr, 1k tbn, 1k tbc
Stream #0:1: Audio: wmav2 (a[1][0][0] / 0x0161), 48000 Hz, stereo, s16, 128 kb/s
screenshots
PervsOnPatrol Balcony Banging Megan torrent screenshot 3605BE3B451F18BAFF6518BC4BA70DB92DE184BE PervsOnPatrol Balcony Banging Megan  torrent screenshot 3605be3b451f18baff6518bc4ba70db92de184be torrent PervsOnPatrol Balcony Banging Megan
PervsOnPatrol - Balcony Banging - Megan-Salinas images are auto generated please report any inapropriate images
 

related search cloud

 salinas  megan  banging  pervsonpatrol  balcony  rarbg