Torrent Search | Torrent Meta Search | Widgets

Marc Dorcel After Party Bitches XXX

1.37 Gb
found 4 years ago
▲ seeders: 0 ▼ leechers:1
your vote:
real:
fake:
download torrent

Marc Dorcel After Party Bitches XXX torrent

Information about the torrent Marc Dorcel After Party Bitches XXX. Seeders, leechers and torrent status is updated everyday.

If you want to download the european torrent Marc Dorcel After Party Bitches XXX you will need a torrent client.

Torrent Metasearch.

comments/reviews
140
torrent contents

Marc Dorcel After Party Bitches XXX torrent

Marc Dorcel After Party Bitches XXX
 Marc.Dorcel-After.Party.Bitches.FRENCH.XXX
Marc.Dorcel-After.Party.Bitches.FRENCH.XXX.a.avi698.47 Mb torrent search
Marc.Dorcel-After.Party.Bitches.FRENCH.XXX.b.avi700.26 Mb torrent search

Sample info:
Duration: 00:48:22.90, start: 0.000000, bitrate: 2023 kb/s
Stream #0.0: Video: mpeg4 (Advanced Simple Profile), yuv420p, 640x256 [PAR 1:1 DAR 5:2], 29.97 tbr, 29.97 tbn, 29.98 tbc
Stream #0.1: Audio: mp3, 48000 Hz, stereo, s16, 131 kb/s
screenshots
Images are auto generated please report any inapropriate images
 

related search cloud

 bitches  party  after  marc  dorcel  french