Torrent Search | Torrent Meta Search | Widgets

TPH 34052 Bella Wilde and Chelsea Marie

1.21 Gb
found 12 months ago
▲ seeders: 4 ▼ leechers:5
your vote:
real:
fake:
Direct Download
THANK YOU
download torrent
  Direct Downloadsponsored

TPH 34052 Bella Wilde and Chelsea Marie torrent

Information about the torrent TPH 34052 Bella Wilde and Chelsea Marie. Seeders, leechers and torrent status is updated everyday.

If you want to download the video torrent TPH 34052 Bella Wilde and Chelsea Marie you will need a torrent client.

Torrent Metasearch.

tracker
seeders
leechers
↓ torrent client compatible list

↑ hide torrent client compatible list

Help torrentproject.se to stay alive .
Add links of torrentproject.se in your favorite forum, blog, youtube, facebook, twitter etc.
reviews
140
torrent contents

TPH-34052 Bella Wilde and Chelsea Marie torrent

TPH-34052 Bella Wilde and Chelsea Marie
TPH - Oct 18, 2013 - Bella Wilde and Chelsea Marie (34052).mp4932.88 Mb torrent search
TPH - Oct 18, 2013 - Bella Wilde and Chelsea Marie (34052).wmv304.64 Mb torrent search

Sample info:
Duration: 00:25:25.69, start: 0.000000, bitrate: 5129 kb/s
Stream #0:0(eng): Video: h264 (High) (avc1 / 0x31637661), yuv420p, 1280x720 [SAR 1:1 DAR 16:9], 4999 kb/s, 29.97 fps, 29.97 tbr, 30k tbn, 59.94 tbc
creation_time	: 2013-10-17 23:06:04
handler_name	: MP4 Video Media Handler
Stream #0:1(eng): Audio: aac (mp4a / 0x6134706D), 44100 Hz, stereo, s16, 124 kb/s
creation_time	: 2013-10-17 23:06:04
handler_name	: MP4 Sound Media Handler
screenshots
TPH 34052 Bella Wilde torrent screenshot 394A791A5A74048F9D160103823340BCB1D4A587 TPH 34052 Bella Wilde  torrent screenshot 394a791a5a74048f9d160103823340bcb1d4a587 torrent TPH 34052 Bella Wilde
TPH-34052 Bella Wilde and Chelsea Marie images are auto generated please report any inapropriate images
 

related search cloud

 marie  chelsea  wilde  bella