Torrent Search | Torrent Meta Search | Widgets

Riley Steele Bar Pussy XXX 720p Bluray x264 DPXXXHD

4.37 Gb
found 6 years ago
▲ seeders: 1 ▼ leechers:1
your vote:
real:
fake:
download torrent

Riley Steele Bar Pussy XXX 720p Bluray x264 DPXXXHD torrent

Information about the torrent Riley Steele Bar Pussy XXX 720p Bluray x264 DPXXXHD. Seeders, leechers and torrent status is updated several times per day.

If you want to download the double p torrent Riley Steele Bar Pussy XXX 720p Bluray x264 DPXXXHD you will need a torrent client.

Torrent Metasearch.

tracker
seeders
leechers
↓ torrent client compatible list

↑ hide torrent client compatible list

comments/reviews
140
torrent contents

Riley.Steele.Bar.Pussy.XXX.720p.Bluray.x264-DPXXXHD torrent

Riley.Steele.Bar.Pussy.XXX.720p.Bluray.x264-DPXXXHD
dp-bar.pussy.x264.mkv4.37 Gb torrent search

Sample info:
Duration: 01:38:03.87, start: 0.000000, bitrate: 640 kb/s
Stream #0.0(eng): Video: h264, yuv420p, 1280x720 [PAR 1:1 DAR 16:9], 23.98 fps, 24 tbr, 1k tbn, 47.95 tbc
Stream #0.1(eng): Audio: ac3, 48000 Hz, 5.1, s16, 640 kb/s
screenshots
Images are auto generated please report any inapropriate images
 

related search cloud

 dpxxxhd  bluray  steele  riley