Torrent Search | Torrent Meta Search | Widgets

ALE TORRENTY PL 6 ty Dzień The six day (2000) DVDRip XviD AC3 ENG Napisy PL AT Team

1.07 Gb
found 3 years ago
▲ seeders: 0 ▼ leechers:1
your vote:
real:
fake:
download torrent

ALE TORRENTY PL 6 ty Dzień The six day (2000) DVDRip XviD AC3 ENG Napisy PL AT Team torrent

Information about the torrent ALE TORRENTY PL 6 ty Dzień The six day (2000) DVDRip XviD AC3 ENG Napisy PL AT Team. Seeders, leechers and torrent status is updated everyday.

If you want to download the dvdrip torrent ALE TORRENTY PL 6 ty Dzień The six day (2000) DVDRip XviD AC3 ENG Napisy PL AT Team you will need a torrent client.

Torrent Metasearch.

comments/reviews
140
torrent contents

[ALE TORRENTY.PL] 6-ty Dzień - The six day (2000) [DVDRip Xvid AC3][ENG][Napisy PL]AT-Team] torrent

[ALE TORRENTY.PL] 6-ty Dzień - The six day (2000) [DVDRip Xvid AC3][ENG][Napisy PL]AT-Team]
6-ty Dzień - The six day (2000) [DVDRip Xvid AC3][ENG][Napisy PL]AT-Team].mkv1.07 Gb torrent search
AT-TEAM.jpg36.66 Kb torrent search
Opis PL.txt4.3 Kb torrent search
Read iNFO.txt2.06 Kb torrent search
Masz zaproszenie.url111 bytes torrent search

Sample info:
Duration: 01:58:31.96, start: 0.000000, bitrate: 448 kb/s
Stream #0.0(eng): Video: h264 (High), yuv420p, 704x304, PAR 1:1 DAR 44:19, 25 fps, 25 tbr, 1k tbn, 50 tbc (default)
Stream #0.1(eng): Audio: ac3, 48000 Hz, 5.1, s16, 448 kb/s (default)
Stream #0.2(pol): Subtitle: dvdsub (default) (forced)
title	: AT-TEAM
screenshots
Images are auto generated please report any inapropriate images
 

related search cloud

 team  dzie  xvid  napisy  dvdrip  masz  zaproszenie  info  torrenty  opis