Torrent Search | Torrent Meta Search | Widgets

Easy Rider (1969) DVDRip XviD Ekolb

       
699.07 Mb
found 7 years ago
▲ seeders: 17 ▼ leechers:2
your vote:
real:
fake:

Easy Rider

1969 · 95 min · 7.4/10 (79k votes) in imdb
Drama
This Year It's Easy Rider
Director: Dennis Hopper
Two counterculture bikers travel from Los Angeles to New Orleans in search of America.
download torrent

Easy Rider (1969) DVDRip XviD Ekolb torrent

Information about the torrent Easy Rider (1969) DVDRip XviD Ekolb. Seeders, leechers and torrent status is updated everyday.

If you want to download the dvdrip torrent Easy Rider (1969) DVDRip XviD Ekolb you will need a torrent client.

Torrent Metasearch.

Torrent verified by isohunt.com.

tracker
seeders
leechers
↓ torrent client compatible list

↑ hide torrent client compatible list

torrent contents

Easy Rider 1969 DVDrip XviD-Ekolb torrent

Easy Rider_1969_DVDrip_XviD-Ekolb
200px-EasyRider.jpg24.07 Kb torrent search
Easy Rider_1969_DVDrip_XviD-Ekolb.avi699.04 Mb torrent search
Easy Rider_1969_DVDrip_XviD-Ekolb.nfo2.32 Kb torrent search

Sample info:
Duration: 01:31:43.00, start: 0.000000, bitrate: 1065 kb/s
Stream #0.0: Video: mpeg4 (Advanced Simple Profile), yuv420p, 640x352 [PAR 1:1 DAR 20:11], 25 tbr, 25 tbn, 25 tbc
Stream #0.1: Audio: mp3, 48000 Hz, stereo, s16, 128 kb/s
screenshots
Images are auto generated please report any inapropriate images
 

related search cloud

 ekolb  xvid  dvdrip  easy  rider  easyrider