Torrent Search | Torrent Meta Search | Widgets

The Magicians US S02E13 WEB DL XviD FUM ettv

397.21 Mb
found 9 days ago
▲ seeders: 558 ▼ leechers:38
your vote:
real:
fake:
download torrent

The Magicians US S02E13 WEB DL XviD FUM ettv torrent

Information about the torrent The Magicians US S02E13 WEB DL XviD FUM ettv. Seeders, leechers and torrent status is updated everyday.

If you want to download the tv torrent The Magicians US S02E13 WEB DL XviD FUM ettv you will need a torrent client.

Torrent Metasearch.

tracker
seeders
leechers
↓ torrent client compatible list

↑ hide torrent client compatible list

torrent contents

The.Magicians.US.S02E13.WEB-DL.XviD-FUM[ettv] torrent

The.Magicians.US.S02E13.WEB-DL.XviD-FUM[ettv]
The.Magicians.US.S02E13.WEB-DL.XviD-FUM[ettv].avi397.21 Mb torrent search
Torrent-Downloaded-from-ExtraTorrent.cc.txt289 bytes torrent search

Sample info:
Duration: 00:46:21.86, start: 0.000000, bitrate: 1197 kb/s
Stream #0:0: Video: mpeg4 (Advanced Simple Profile) (XVID / 0x44495658), yuv420p, 624x352 [SAR 1:1 DAR 39:22], 1060 kb/s, 23.98 fps, 23.98 tbr, 23.98 tbn, 23.98 tbc
Stream #0:1: Audio: mp3 (U[0][0][0] / 0x0055), 48000 Hz, stereo, s16p, 128 kb/s
screenshots
Images are auto generated please report any inapropriate images
 

related search cloud

 magicians  ettv  xvid  extratorrent  torrent  downloaded