Torrent Search | Torrent Meta Search | Widgets

BigTitsAtWork Brazzers Susy Gala Cock in the Stall 19 04 (2017) tk

       
254.38 Mb
found 11 days ago
▲ seeders: 737 ▼ leechers:121
your vote:
real:
fake:
download torrent

BigTitsAtWork Brazzers Susy Gala Cock in the Stall 19 04 (2017) tk torrent

Information about the torrent BigTitsAtWork Brazzers Susy Gala Cock in the Stall 19 04 (2017) tk. Seeders, leechers and torrent status is updated everyday.

If you want to download the adult torrent BigTitsAtWork Brazzers Susy Gala Cock in the Stall 19 04 (2017) tk you will need a torrent client.

Torrent Metasearch.

Torrent verified by thepiratebay.se.

tracker
seeders
leechers
↓ torrent client compatible list

↑ hide torrent client compatible list

torrent contents

[BigTitsAtWork Brazzers] Susy Gala (Cock in the Stall 19.04.2017) [tk].mp4 torrent

[BigTitsAtWork Brazzers] Susy Gala (Cock in the Stall 19.04.2017) [tk].mp4254.38 Mb torrent search

Sample info:
Duration: 00:31:12.04, start: 0.000000, bitrate: 1139 kb/s
Stream #0:0(eng): Video: h264 (High) (avc1 / 0x31637661), yuv420p, 854x480 [SAR 1280:1281 DAR 16:9], 1007 kb/s, 23.98 fps, 23.98 tbr, 11988 tbn, 47.95 tbc (default)
handler_name	: VideoHandler
Stream #0:1(eng): Audio: aac (LC) (mp4a / 0x6134706D), 48000 Hz, stereo, fltp, 128 kb/s (default)
handler_name	: SoundHandler
screenshots
Images are auto generated please report any inapropriate images
 

related search cloud

 cock  stall  gala  susy  brazzers  bigtitsatwork