Torrent Search | Torrent Meta Search | Widgets

Madelyn Marie Milk and Cookie HD 720p

       
1.15 Gb
found 4 years ago
▲ seeders: 4 ▼ leechers:0
your vote:
real:
fake:
Direct Download
THANK YOU
download torrent
  Direct Downloadsponsored

Madelyn Marie Milk and Cookie HD 720p torrent

Information about the torrent Madelyn Marie Milk and Cookie HD 720p. Seeders, leechers and torrent status is updated several times per day.

If you want to download the hdrip torrent Madelyn Marie Milk and Cookie HD 720p you will need a torrent client.

Torrent Metasearch.

Torrent verified by kat.ph.

tracker
seeders
leechers
↓ torrent client compatible list

↑ hide torrent client compatible list

Help torrentproject.se to stay alive .
Add links of torrentproject.se in your favorite forum, blog, youtube, facebook, twitter etc.
reviews
140
torrent contents

BigTitsCreampie.com - Madelyn Marie (Milk and Cookie) HD 720p torrent

BigTitsCreampie.com - Madelyn Marie (Milk and Cookie) HD 720p
BigTitsCreampie.com - Madelyn Marie (Milk and Cookie) HD 720p.mp41.15 Gb torrent search
Poster 1.jpg283.97 Kb torrent search
Poster 2.jpg332.49 Kb torrent search
Screen.jpg505.47 Kb torrent search

Sample info:
Duration: 00:53:11.93, start: 0.000000, bitrate: 3101 kb/s
Stream #0.0(eng): Video: h264, yuv420p, 1280x768, 2999 kb/s, 29 fps, 29 tbr, 29 tbn, 58 tbc
creation_time	: 1970-01-01 00:00:00
Stream #0.1(eng): Audio: aac, 44100 Hz, stereo, s16, 95 kb/s
creation_time	: 1970-01-01 00:00:00
screenshots
Madelyn Marie Milk and torrent screenshot 3B898794A1BE568E5F59AD69997ADEAE8B5AAC9D Madelyn Marie Milk and  torrent screenshot 3b898794a1be568e5f59ad69997adeae8b5aac9d torrent Madelyn Marie Milk and
BigTitsCreampie.com - Madelyn Marie (Milk and Cookie) HD 720p images are auto generated please report any inapropriate images
 

related search cloud

 cookie  poster  bigtitscreampie  milk  marie  madelyn  screen