Torrent Search | Torrent Meta Search | Widgets

Drone (2017) 1080p YTS AG

1.37 Gb
found 13 days ago
▲ seeders: 1035 ▼ leechers:203
your vote:
real:
fake:
download torrent

Drone (2017) 1080p YTS AG torrent

Information about the torrent Drone (2017) 1080p YTS AG. Seeders, leechers and torrent status is updated several times per day.

If you want to download the hdrip torrent Drone (2017) 1080p YTS AG you will need a torrent client.

Torrent Metasearch.

tracker
seeders
leechers
↓ torrent client compatible list

↑ hide torrent client compatible list

torrent contents

Drone (2017) [1080p] [YTS.AG] torrent

Drone (2017) [1080p] [YTS.AG]
WWW.YTS.AG.jpg103.35 Kb torrent search
Drone.2017.1080p.BluRay.x264-[YTS.AG].mp41.37 Gb torrent search

Sample info:
Duration: 01:29:36.42, start: 0.042667, bitrate: 2195 kb/s
Stream #0:0	: Video: h264 (High) (avc1 / 0x31637661), yuv420p, 1920x800 [SAR 1:1 DAR 12:5], 2049 kb/s, 23.98 fps, 23.98 tbr, 13978 tbn, 47.95 tbc (default)
handler_name	: VideoHandler
Stream #0:1	: Audio: aac (LC) (mp4a / 0x6134706D), 48000 Hz, stereo, fltp, 138 kb/s (default)
handler_name	: SoundHandler
screenshots
Images are auto generated please report any inapropriate images
 

related search cloud

 drone  bluray