Torrent Search | Torrent Meta Search | Widgets

18OG Super Squirt

       
1.16 Gb
found 5 years ago
▲ seeders: 1 ▼ leechers:1
your vote:
real:
fake:
download torrent

18OG Super Squirt torrent

Information about the torrent 18OG Super Squirt. Seeders, leechers and torrent status is updated everyday.

If you want to download the squirting torrent 18OG Super Squirt you will need a torrent client.

Torrent Metasearch.

Torrent verified by kat.ph.

tracker
seeders
leechers
↓ torrent client compatible list

↑ hide torrent client compatible list

comments/reviews
140
torrent contents

18OG - Super Squirt torrent

18OG - Super Squirt
[18OnlyGirls] Super Squirt.wmv1.16 Gb torrent search

Sample info:
Duration: 00:19:02.88, start: 3.000000, bitrate: 8724 kb/s
Stream #0.0(rus): Audio: wmav2, 44100 Hz, 2 channels, s16, 192 kb/s
Stream #0.1(rus): Video: wmv3, yuv420p, 1920x1080, 8491 kb/s, 29.97 tbr, 1k tbn, 1k tbc
screenshots
Images are auto generated please report any inapropriate images
 

related search cloud

 super  squirt  onlygirls