Torrent Search | Torrent Meta Search | Widgets

Kagney Linn Karter vs Sara Sloane

       
2.73 Gb
found 4 years ago
▲ seeders: 0 ▼ leechers:1
your vote:
real:
fake:
download torrent

Kagney Linn Karter vs Sara Sloane torrent

Information about the torrent Kagney Linn Karter vs Sara Sloane. A torrent file stores metadata that can be used from a BitTorrent client.

If you want to download the video torrent Kagney Linn Karter vs Sara Sloane you will need a torrent client.

Torrent Metasearch.

.

comments/reviews
140
torrent contents

Kagney.Linn.Karter.vs.Sara.Sloane torrent

Kagney.Linn.Karter.vs.Sara.Sloane
cic-kvssd2a.avi700.06 Mb torrent search
cic-kvssd1a.avi699.46 Mb torrent search
cic-kvssd1b.avi697.23 Mb torrent search
cic-kvssd2b.avi694.49 Mb torrent search

Sample info:
Duration: 01:40:22.34, start: 0.000000, bitrate: 975 kb/s
Stream #0.0: Video: mpeg4 (Advanced Simple Profile), yuv420p, 624x352 [PAR 1:1 DAR 39:22], 29.97 tbr, 29.97 tbn, 29.98 tbc
Stream #0.1: Audio: mp3, 48000 Hz, mono, s16, 105 kb/s
screenshots
Images are auto generated please report any inapropriate images
 

related search cloud

 sara  karter  linn  kagney