Torrent Search | Torrent Meta Search | Widgets

torrent

       
315.76 Mb
found 3 years ago
▲ seeders: 4 ▼ leechers:3
your vote:
real:
fake:
Direct Download
THANK YOU
download torrent
  Direct Downloadsponsored

torrent torrent

Information about the torrent torrent. Seeders, leechers and torrent status is updated several times per day.

If you want to download the video torrent torrent you will need a torrent client.

Torrent Metasearch.

Torrent verified by kat.ph.

tracker
seeders
leechers
↓ torrent client compatible list

↑ hide torrent client compatible list

Help torrentproject.se to stay alive .
Add links of torrentproject.se in your favorite forum, blog, youtube, facebook, twitter etc.
reviews
140
torrent contents

Cassie_Cruz_Jumping_Rope_Makes_Me_Bounce.wmv torrent

Cassie_Cruz_Jumping_Rope_Makes_Me_Bounce.wmv315.76 Mb torrent search

Sample info:
Duration: 00:18:22.33, start: 3.100000, bitrate: 2402 kb/s
Stream #0.0: Video: wmv2, yuv420p, 768x432, 29.92 tb(r)
Stream #0.1: Audio: wmav2, 48000 Hz, stereo, 64 kb/s
screenshots
torrent torrent screenshot 3FFE61C53ECE4805A03752154ACE0D5CA18411F9 torrent torrent screenshot 3ffe61c53ece4805a03752154ace0d5ca18411f9 torrent torrent
Cassie_Cruz_Jumping_Rope_Makes_Me_Bounce.wmv images are auto generated please report any inapropriate images
 

related search cloud

 makes  bounce  rope  jumping  cruz  caie