Torrent Search | Torrent Meta Search | Widgets

Brigitte Lahaie MegaPack XXX

10.33 Gb
found 4 years ago
▲ seeders: 5 ▼ leechers:4
your vote:
real:
fake:
Direct Download
THANK YOU
download torrent
  Direct Downloadsponsored

Brigitte Lahaie MegaPack XXX torrent

Information about the torrent Brigitte Lahaie MegaPack XXX. Seeders, leechers and torrent status is updated everyday.

If you want to download the adult torrent Brigitte Lahaie MegaPack XXX you will need a torrent client.

Torrent Metasearch.

tracker
seeders
leechers
↓ torrent client compatible list

↑ hide torrent client compatible list

Help torrentproject.se to stay alive .
Add links of torrentproject.se in your favorite forum, blog, youtube, facebook, twitter etc.
reviews
140
torrent contents

Brigitte.Lahaie.MegaPack.XXX torrent

Brigitte.Lahaie.MegaPack.XXX
01adb82b7f9058dff1.jpg68.85 Kb torrent search
24712_Je_Suis_A_Prendre_-_Brigitte_Lahaie__719782__c1_123_408lo_123_408lo.jpg46.83 Kb torrent search
2ce110f4a702923b92.jpg33.26 Kb torrent search
3dece2a2619aaa48b2.jpg20.64 Kb torrent search
5215291-1.jpg47.93 Kb torrent search
6c0fc6eef938546ea5.jpg37.76 Kb torrent search
bocallgirlsdeluxe.jpg85.43 Kb torrent search
bolessoirees.jpg60.78 Kb torrent search
bosecretsdadolesce.jpg93.48 Kb torrent search
brigitte_hard0048_jpg.jpg41.24 Kb torrent search
ca262d20ffc6747c98.jpg14.37 Kb torrent search
Call Girls de Luxe aka enquetes.AVI687.35 Mb torrent search
Call Girls de Luxe aka enquetes.jpg7.03 Mb torrent search
d2e8b85b056dae8301c7e6212220baf3074efa20.jpg55.66 Kb torrent search
Die Nichten der Frau Oberst.avi750.86 Mb torrent search
Die Nichten der Frau Oberst.jpg3.73 Mb torrent search
e726fe160411d83e69.jpg51.55 Kb torrent search

Brigitte.Lahaie.MegaPack.XXX
 Education of the Baroness - (1977)
cover_back.jpg87.19 Kb torrent search
cover_front.jpg74.46 Kb torrent search
Education of the Baroness - (1977).avi704.14 Mb torrent search
screenshots.jpg812.75 Kb torrent search

Brigitte.Lahaie.MegaPack.XXX
Entrecuisses.avi686.76 Mb torrent search
Entrecuisses.jpg6.28 Mb torrent search
fdb8c91bb58c5edc5a.jpg13.63 Kb torrent search
Gefangene Frauen.avi700.47 Mb torrent search
Je suis a prendre.avi698.48 Mb torrent search
Je suis a prendre.jpg6.68 Mb torrent search
La Clinique Des Fantasmes.avi647.59 Mb torrent search
La Clinique Des Fantasmes.jpg6.37 Mb torrent search
Les Enfilees.avi777.75 Mb torrent search
Les Enfilees.jpg4.09 Mb torrent search
Les petites ecolieres.avi797.17 Mb torrent search
Les petites ecolieres.jpg3.21 Mb torrent search
Les Plaisirs fous.avi624.63 Mb torrent search
Les Plaisirs fous.jpg3.55 Mb torrent search
Partie De Chasse En Sologne.avi695.95 Mb torrent search

Sample info:
Duration: 01:30:33.52, start: 0.000000, bitrate: 1238 kb/s
Stream #0.0: Video: mpeg4 (Advanced Simple Profile), yuv420p, 560x448 [PAR 1:1 DAR 5:4], 25 tbr, 25 tbn, 25 tbc
Stream #0.1: Audio: mp3, 44100 Hz, stereo, s16, 128 kb/s
screenshots
Brigitte Lahaie MegaPack XXX torrent screenshot 409F6FEB20FA37D2FA63004A4A45F0332EEB9236 Brigitte Lahaie MegaPack XXX torrent screenshot 409f6feb20fa37d2fa63004a4a45f0332eeb9236 torrent Brigitte Lahaie MegaPack XXX
Brigitte.Lahaie.MegaPack.XXX images are auto generated please report any inapropriate images
you may be interested in these torrents seeders leechers size found
Classic xxx     7 5 20.91 Gb 2 years ago

1 Classic XXX - 1977 - Brigitte Lahaie - La Perversion d'une Jeune Mariee Divx.AVI [Classic XX


Classic XXX #047 Brigitte Lahaie #012 Je Suis a Prendre 5 5 698.77 Mb 4 years ago

Classic XXX - Brigitte Lahaie - Je Suis a Prendre.avi Classic XXX -


Marc Dorcel Brigitte Lahaie Les Faveurs De Sophie 1984 5 1 700.63 Mb 3 years ago

Marc_Dorcel_-_Brigitte_Lahaie_-_Les_Faveurs_De_Sophie_1984.avi


Alpha France Parties Fines 1977 5 7 625.11 Mb 1 year ago

Classic XXX - 1977 - Parties Fines (Brigitte Lahaie).avi


Classic XXX #061 Brigitte Lahaie #017 L anthologie du Plaisir 4 2 500.75 Mb 3 years ago

Classic XXX - Brigitte Lahaie - L anthologie du Plaisir.avi C


Brigitte Lahaie Entrecuisses Possessions (1977) XXX 4 2 1.37 Gb 4 years ago

Brigitte.Lahaie-Entrecuisses(Possessions).1977.XXX.avi Brigitte.Lahaie-Entrecui


Alpha France Fievres Nocturnes 1978 4 5 548.21 Mb 1 year ago

Classic XXX - Brigitte Lahaie - Fievres nocturnes.avi


Classic XXX #069 Brigitte Lahaie #020 Le Retour Des Veuves 3 4 651.65 Mb 3 years ago

Classic XXX - Brigitte Lahaie - Le Retour Des Veuves.avi Cla


Classic XXX #078 Brigitte Lahaie #023 Maitresse Pour Couples 3 4 687.22 Mb 3 years ago

Classic XXX - Brigitte Lahaie - Maitresse Pour Couples.avi 0f


 

related search cloud

 brigitte  lahaie  suis  prendre  megapack  clinique  entrecuies  cover  fantasmes  education