Torrent Search | Torrent Meta Search | Widgets

The Hunger Games Catching Fire (2013) 1080p

2.05 Gb
found 11 months ago
▲ seeders: 1669 ▼ leechers:467
your vote:
real:
fake:

The Hunger Games: Catching Fire

2013 · 146 min · 7.7/10 (349k votes) in imdb
Science Fiction, Thriller, Action, Adventure
Every revolution begins with a spark.
Director: Francis Lawrence
Katniss Everdeen has returned home safe after winning the 74th Annual Hunger Games along with fellow tribute Peeta Mellark. Winning means that they must turn around and leave their family and close friends, embarking on a "Victor's Tour" of the districts. Along the way Katniss senses that a rebellion is simmering, but the Capitol is still very much in control as President Snow prepares the 75th Annual Hunger Games (The Quarter Quell) - a competition that could change Panem forever.
THANK YOU
download torrent

The Hunger Games Catching Fire (2013) 1080p torrent

Information about the torrent The Hunger Games Catching Fire (2013) 1080p. Seeders, leechers and torrent status is updated several times per day.

If you want to download the hdrip torrent The Hunger Games Catching Fire (2013) 1080p you will need a torrent client.

Torrent Metasearch.

tracker
seeders
leechers
↓ torrent client compatible list

↑ hide torrent client compatible list

reviews
140
torrent contents

The Hunger Games Catching Fire (2013) [1080p] torrent

The Hunger Games Catching Fire (2013) [1080p]
The.Hunger.Games.Catching.Fire.2013.1080p.BluRay.x264.YIFY.mp42.05 Gb torrent search
WWW.YIFY-TORRENTS.COM.jpg127.61 Kb torrent search

Sample info:
Duration: 02:26:14.69, start: 0.000000, bitrate: 2003 kb/s
Stream #0:0	: Video: h264 (High) (avc1 / 0x31637661), yuv420p, 1920x1080 [SAR 1:1 DAR 16:9], 1905 kb/s, 23.98 fps, 23.98 tbr, 24k tbn, 47.95 tbc
creation_time	: 2014-01-19 19:23:23
handler_name	: video.264#trackID=1:fps=23.976 - Imported with GPAC 0.5.0-rev
Stream #0:1(eng): Audio: aac (mp4a / 0x6134706D), 48000 Hz, stereo, s16, 93 kb/s
creation_time	: 2014-01-19 19:23:45
handler_name	: GPAC ISO Audio Handler
screenshots
The Hunger Games Catching torrent screenshot 40D0B4BF5A44D73BC7CE64D0D59D2DBDAC424A76 The Hunger Games Catching  torrent screenshot 40d0b4bf5a44d73bc7ce64d0d59d2dbdac424a76 torrent The Hunger Games Catching
Images are auto generated please report any inapropriate images
you may be interested in these torrents seeders leechers size found
The Hunger Games Catching Fire (2013)     3237 292 983.46 Mb 11 months ago

The.Hunger.Games.Catching.Fire.2013.720p.BluRay.x264.YIFY.mp4 WWW.YIFY-TORRENTS.COM.jpg


Cpasbien me The Hunger Games Catching Fire (2013) FRENCH BDRip XviD FrIeNdS 2746 163 1.37 Gb 10 months ago

[www.Cpasbien.me] The.Hunger.Games.Catching.Fire.2013.FRENCH.BDRip.XviD-FrIeNdS.avi


The Hunger Games Catching Fire (2013) 720p BluRay x264 NeZu 576 64 1.4 Gb 2 months ago

the.hunger.games.catching.fire.2013.720p.bluray.x264-sample.mkv 0d


The Hunger Games Catching Fire (2013) DVDRip TRNC     380 7 1.22 Gb 11 months ago

The Hunger Games Catching Fire 2013 DVDRip TRNC.mp4 important.txt


The Hunger Games Catching Fire (2013) FRENCH BDRip XviD AC3 FrIeNdS     322 167 2.06 Gb 10 months ago

The.Hunger.Games.Catching.Fire.2013.FRENCH.BDRip.XviD.AC3-FrIeNdS.avi


The Hunger Games Catching Fire (2013) FANSUB VOSTFR BRRiP XviD AC3 NIKOo     308 30 1.39 Gb 11 months ago

The.Hunger.Games.Catching.Fire.2013.FANSUB.VOSTFR.BRRiP.XViD.AC3-NIKOo.a


The Hunger Games Catching Fire (2013) IMAX EDITION 720p BluRay x264 PublicHD     245 13 5.45 Gb 11 months ago

The.Hunger.Games.Catching.Fire.2013.IMAX.EDITION.720p.BluRay.x264-Pu


The Hunger Games Catching Fire (2013) BRRip XviD SaM ETRG     220 50 706.3 Mb 11 months ago

The Hunger Games Catching Fire [2013]BRRip XviD-SaM[ETRG].avi SaMple.


The Hunger Games Catching Fire (2013) DVDRip XviD MAXSPEED     219 23 1.56 Gb 11 months ago

The Hunger Games Catching Fire (2013) DVDRip XviD-MAXSPEED www.torentz.3xforum.ro.av


 

related search cloud

 yify  hunger  fire  games  catching  torrents  bluray