Torrent Search | Torrent Meta Search | Widgets

Loli Gal Paradise DVDRip XviD Japanese Uncensored Perlite

       
694.68 Mb
found 4 years ago
▲ seeders: 21 ▼ leechers:5
your vote:
real:
fake:
Direct Download
THANK YOU
download torrent
  Direct Downloadsponsored

Loli Gal Paradise DVDRip XviD Japanese Uncensored Perlite torrent

Information about the torrent Loli Gal Paradise DVDRip XviD Japanese Uncensored Perlite. Seeders, leechers and torrent status is updated everyday.

If you want to download the dvdrip torrent Loli Gal Paradise DVDRip XviD Japanese Uncensored Perlite you will need a torrent client.

Torrent Metasearch.

Torrent verified by kat.ph.

tracker
seeders
leechers
↓ torrent client compatible list

↑ hide torrent client compatible list

Help torrentproject.se to stay alive .
Add links of torrentproject.se in your favorite forum, blog, youtube, facebook, twitter etc.
reviews
140
torrent contents

Loli-Gal.Paradise[DvDrip]XviD[Japanese.Uncensored]-Perlite torrent

Loli-Gal.Paradise[DvDrip]XviD[Japanese.Uncensored]-Perlite
Cover.750x510px.JPEG.jpg172.88 Kb torrent search
Loli-Gal.Paradise[DvDrip]XviD[Japanese.Uncensored]-Perlite.avi694.51 Mb torrent search

Sample info:
Duration: 01:28:44.78, start: 0.000000, bitrate: 1094 kb/s
Stream #0.0: Video: mpeg4, yuv420p, 640x480 [PAR 1:1 DAR 4:3], 29.97 tbr, 29.97 tbn, 29.97 tbc
Stream #0.1: Audio: mp3, 48000 Hz, stereo, s16, 64 kb/s
screenshots
Loli Gal Paradise DVDRip torrent screenshot 41488801F152CDB9468FFFBED2F9B9F4C875937D Loli Gal Paradise DVDRip  torrent screenshot 41488801f152cdb9468fffbed2f9b9f4c875937d torrent Loli Gal Paradise DVDRip
Loli-Gal.Paradise[DvDrip]XviD[Japanese.Uncensored]-Perlite images are auto generated please report any inapropriate images
 

related search cloud

 uncensored  perlite  loli  japanese  xvid  paradise  dvdrip  jpeg  cover