Torrent Search | Torrent Meta Search | Widgets

Dos Tontos Muy Tontos DVDRip spanish

       
700.83 Mb
found 3 years ago
▲ seeders: 26 ▼ leechers:1
your vote:
real:
fake:
Direct Download
THANK YOU
download torrent
  Direct Downloadsponsored

Dos Tontos Muy Tontos DVDRip spanish torrent

Information about the torrent Dos Tontos Muy Tontos DVDRip spanish. Seeders, leechers and torrent status is updated several times per day.

If you want to download the dvdrip torrent Dos Tontos Muy Tontos DVDRip spanish you will need a torrent client.

Torrent Metasearch.

Torrent verified by kat.ph.

tracker
seeders
leechers
↓ torrent client compatible list

↑ hide torrent client compatible list

Help torrentproject.se to stay alive .
Add links of torrentproject.se in your favorite forum, blog, youtube, facebook, twitter etc.
reviews
140
torrent contents

Dos Tontos Muy Tontos [dvdrip][spanish][www.lokotorrents.com] torrent

Dos Tontos Muy Tontos [dvdrip][spanish][www.lokotorrents.com]
Dos Tontos Muy Tontos [dvdrip][spanish][www.lokotorrents.com].avi700.83 Mb torrent search

Sample info:
Duration: 01:42:00.96, start: 0.000000, bitrate: 960 kb/s
Stream #0.0: Video: mpeg4, yuv420p, 544x288 [PAR 1:1 DAR 17:9], 25 fps, 25 tbr, 25 tbn, 30k tbc
Stream #0.1: Audio: mp3, 48000 Hz, 2 channels, s16, 117 kb/s
screenshots
Dos Tontos Muy Tontos torrent screenshot 4358AA70989BB3E6D1432BF25992CFC0D2519273 Dos Tontos Muy Tontos  torrent screenshot 4358aa70989bb3e6d1432bf25992cfc0d2519273 torrent Dos Tontos Muy Tontos
Dos Tontos Muy Tontos [dvdrip][spanish][www.lokotorrents.com] images are auto generated please report any inapropriate images
 

related search cloud

 tontos  lokotorrents  dvdrip  spanish