Torrent Search | Torrent Meta Search | Widgets

Nymphomaniac XXX 720p BluRay x264 Jiggly

       
4.37 Gb
found 3 years ago
▲ seeders: 1 ▼ leechers:1
your vote:
real:
fake:
download torrent

Nymphomaniac XXX 720p BluRay x264 Jiggly torrent

Information about the torrent Nymphomaniac XXX 720p BluRay x264 Jiggly. Seeders, leechers and torrent status is updated several times per day.

If you want to download the adult torrent Nymphomaniac XXX 720p BluRay x264 Jiggly you will need a torrent client.

Torrent Metasearch.

.

tracker
seeders
leechers
↓ torrent client compatible list

↑ hide torrent client compatible list

comments/reviews
140
torrent contents

Nymphomaniac.XXX.720p.BluRay.x264-Jiggly torrent

Nymphomaniac.XXX.720p.BluRay.x264-Jiggly
Torrent Downloaded From ExtraTorrent.com.nfo339 bytes torrent search
jiggly-nymphomaniac-720p.mkv4.37 Gb torrent search
jiggly-nymphomaniac-720p.mkv.jpg2.58 Mb torrent search
jiggly-nymphomaniac-720p.nfo2.63 Kb torrent search

Sample info:
Duration: 01:25:55.13, start: 0.000000, bitrate: 7285 kb/s
Stream #0:0(eng): Video: h264 (High), yuv420p, 1280x720 [SAR 1:1 DAR 16:9], 23.98 fps, 23.98 tbr, 1k tbn, 47.95 tbc (default)
Stream #0:1(eng): Audio: ac3, 48000 Hz, 5.1(side), s16, 640 kb/s (default)
screenshots
Images are auto generated please report any inapropriate images
 

related search cloud

 nymphomaniac  jiggly  extratorrent  downloaded  torrent  bluray