Torrent Search | Torrent Meta Search | Widgets

Nymphomaniac XXX 720p BluRay x264 Jiggly

4.37 Gb
found 1 year ago
▲ seeders: 94 ▼ leechers:29
your vote:
real:
fake:
Direct Download
THANK YOU
download torrent
  Direct Downloadsponsored

Nymphomaniac XXX 720p BluRay x264 Jiggly torrent

Information about the torrent Nymphomaniac XXX 720p BluRay x264 Jiggly. Seeders, leechers and torrent status is updated several times per day.

If you want to download the adult torrent Nymphomaniac XXX 720p BluRay x264 Jiggly you will need a torrent client.

Torrent Metasearch.

tracker
seeders
leechers
↓ torrent client compatible list

↑ hide torrent client compatible list

Help torrentproject.se to stay alive .
Add links of torrentproject.se in your favorite forum, blog, youtube, facebook, twitter etc.
reviews
140
torrent contents

Nymphomaniac.XXX.720p.BluRay.x264-Jiggly torrent

Nymphomaniac.XXX.720p.BluRay.x264-Jiggly
Torrent Downloaded From ExtraTorrent.com.nfo339 bytes torrent search
jiggly-nymphomaniac-720p.mkv4.37 Gb torrent search
jiggly-nymphomaniac-720p.mkv.jpg2.58 Mb torrent search
jiggly-nymphomaniac-720p.nfo2.63 Kb torrent search

Sample info:
Duration: 01:25:55.13, start: 0.000000, bitrate: 7285 kb/s
Stream #0:0(eng): Video: h264 (High), yuv420p, 1280x720 [SAR 1:1 DAR 16:9], 23.98 fps, 23.98 tbr, 1k tbn, 47.95 tbc (default)
Stream #0:1(eng): Audio: ac3, 48000 Hz, 5.1(side), s16, 640 kb/s (default)
screenshots
Nymphomaniac XXX 720p BluRay torrent screenshot 43D7E739C1970E421D5551ADE31BA09FC39F54C1 Nymphomaniac XXX 720p BluRay  torrent screenshot 43d7e739c1970e421d5551ade31ba09fc39f54c1 torrent Nymphomaniac XXX 720p BluRay
Nymphomaniac.XXX.720p.BluRay.x264-Jiggly images are auto generated please report any inapropriate images
you may be interested in these torrents seeders leechers size found
Alexis Texas Nymphomaniac XXX DVDRip     10 5 1.37 Gb 2 years ago

nympho-atn.cd1.avi nympho-atn.cd2.avi


BabyGotBoobs 14 09 18 Chessie Kay Confessions Of A Nymphomaniac XXX 1080p MP4 KTR rarbg 10 4 2.95 Gb 2 months ago

RARBG.com.txt bgb.14.09.18.chessie.kay.confes


Tori Black Nymphomaniac XXX DVDRip XviD NYMPHO     6 4 2.04 Gb 4 years ago

nympho-tbnympho.cd1.avi nympho-tbnympho.cd2.avi nympho-tbnympho.


Bobbi Starr Nymphomaniac XXX     5 2 1.62 Gb 2 years ago

Bobbi.Starr-Nymphomaniac.XXX.avi


Jenna Haze Nymphomaniac 5 2 2.05 Gb 6 months ago

Jenna.Haze.Nymphomaniac.XXX.DVDRip.XviD-STARLETS.CD1.avi Jenna.Haze.Nymphomaniac.XXX.DVDRip.XviD-STARLE


Brooklyn Lee Nymphomaniac XXX DVDRip     3 0 1.37 Gb 2 years ago

slieze-blnympho.cd2.avi slieze-blnympho.cd1.avi


Nymphomaniac XXX 1080p BluRay x264 Jiggly 3 8 6.56 Gb 3 years ago

jiggly-nymphomaniac-1080p.mkv


DP Nymphomaniac 3 5 698.15 Mb 1 year ago

DP.Nymphomaniac.XXX.DVDRip.XviD-Jiggly.avi


Tori Black Nymphomaniac 3 1 2.04 Gb 4 months ago

Tori.Black.Nymphomaniac.XXX.DVDRip.XviD-NYMPHO.CD1.avi Tori.Black.Nymphomaniac.XXX.DVDRip.XviD-NYMPHO.C


 

related search cloud

 nymphomaniac  jiggly  extratorrent  downloaded  torrent  bluray