Torrent Search | Torrent Meta Search | Widgets

Brandibelle COMPLETE SITERIP XXX WMV PRONCLIPS

       
35.15 Gb
found 3 years ago
▲ seeders: 2 ▼ leechers:6
your vote:
real:
fake:
THANK YOU
download torrent

Brandibelle COMPLETE SITERIP XXX WMV PRONCLIPS torrent

Information about the torrent Brandibelle COMPLETE SITERIP XXX WMV PRONCLIPS. Seeders, leechers and torrent status is updated everyday.

If you want to download the pov torrent Brandibelle COMPLETE SITERIP XXX WMV PRONCLIPS you will need a torrent client.

Torrent Metasearch.

Torrent verified by kat.ph.

tracker
seeders
leechers
↓ torrent client compatible list

↑ hide torrent client compatible list

reviews
140
torrent contents

Brandibelle.COMPLETE.SITERIP.XXX.WMV-PRONCLIPS torrent

Brandibelle.COMPLETE.SITERIP.XXX.WMV-PRONCLIPS
Myth.Busting.Brandi.and.Kitty.wmv608.71 Mb torrent search
BALLS.wmv522.67 Mb torrent search
The.Secretarys.Revenge.wmv493.96 Mb torrent search
Brandis.First.Cream.Pie.wmv411.22 Mb torrent search
Real.Pussy.VS.Pocket.Pussy.wmv410.65 Mb torrent search
Operation.Vibration.wmv409.92 Mb torrent search
Poker.I.Dont.Even.Know.Her.wmv409.54 Mb torrent search
sleep.with.both.eyes.open.wmv402.65 Mb torrent search
Fun.With.The.Pool.Boys.wmv402.1 Mb torrent search
penis.parade.wmv400.42 Mb torrent search
Sesarching.For.Some.Talent.wmv381.24 Mb torrent search
Brandi.POV.Style.wmv340.11 Mb torrent search
Industry.Standards.wmv329.55 Mb torrent search
Stamina.Survey.wmv328.37 Mb torrent search
Makeout.Party.With.a.Twist.wmv322.38 Mb torrent search
The.Big.Surprise.wmv317.36 Mb torrent search
Penis.Survey.Goes.Hands.On.wmv315.31 Mb torrent search
Eight.Girls.One.Cock.wmv310.34 Mb torrent search
Milk.the.Penis.wmv304.61 Mb torrent search
Elevator.Sex.Cam.wmv303.58 Mb torrent search
The.Fued.wmv302.99 Mb torrent search
The.Jizz.Moppers.wmv299.4 Mb torrent search
Naked.Bocce.wmv296.87 Mb torrent search
The.Upskirt.Perv.wmv293.63 Mb torrent search
operation.wmv291.94 Mb torrent search
Directors.Cut.wmv290.6 Mb torrent search
Brandi.Spy.Cam.wmv286.6 Mb torrent search
Alphabet.Brandi.wmv283.31 Mb torrent search
Virgin.Newlyweds.wmv281.4 Mb torrent search
The.Return.Of.The.Footjob.wmv273.03 Mb torrent search
Asias.Hot.ASS.wmv269.59 Mb torrent search
Dildo.Challenge.wmv269.22 Mb torrent search
Suck.Off.Handicap.Match.wmv268.63 Mb torrent search
Helloooooooooo.Nurse.wmv266.99 Mb torrent search
Glory.Hole.101.wmv266.21 Mb torrent search
Happy.Belated.New.Year.wmv262.74 Mb torrent search
Dont.Lie.2.me.wmv253.4 Mb torrent search

Sample info:
Duration: 00:54:39.93, start: 5.000000, bitrate: 1556 kb/s
Stream #0.0(eng): Audio: wmav2, 44100 Hz, 2 channels, s16, 48 kb/s
Stream #0.1(eng): Video: wmv3, yuv420p, 720x406, 1500 kb/s, 29.97 tbr, 1k tbn, 1k tbc
screenshots
Brandibelle COMPLETE SITERIP XXX torrent screenshot 43EF0C5B63D62CEF31E3E74F6C8883283B541431 Brandibelle COMPLETE SITERIP XXX  torrent screenshot 43ef0c5b63d62cef31e3e74f6c8883283b541431 torrent Brandibelle COMPLETE SITERIP XXX
Images are auto generated please report any inapropriate images
you may be interested in these torrents seeders leechers size found
Brandibelle COMPLETE XXX PlayBoy 88 0 6 35.15 Gb 3 years ago

Myth.Busting.Brandi.and.Kitty.wmv BALLS.wmv The.Secretarys.Revenge.wmv


 

related search cloud

 brandi  penis  operation  dont  survey  naked  moppers  jizz  bocce  upskirt