Torrent Search | Torrent Meta Search | Widgets

Ohys Raws Kakegurui 06 MX 1280x720 x264 AAC

361.7 Mb
found 6 days ago
▲ seeders: 354 ▼ leechers:12
your vote:
real:
fake:
download torrent

Ohys Raws Kakegurui 06 MX 1280x720 x264 AAC torrent

Information about the torrent Ohys Raws Kakegurui 06 MX 1280x720 x264 AAC. Seeders, leechers and torrent status is updated several times per day.

If you want to download the video torrent Ohys Raws Kakegurui 06 MX 1280x720 x264 AAC you will need a torrent client.

Torrent Metasearch.

tracker
seeders
leechers
↓ torrent client compatible list

↑ hide torrent client compatible list

torrent contents

[Ohys-Raws] Kakegurui - 06 (MX 1280x720 x264 AAC).mp4 torrent

[Ohys-Raws] Kakegurui - 06 (MX 1280x720 x264 AAC).mp4361.7 Mb torrent search

Sample info:
Duration: 00:24:30.04, start: 0.000000, bitrate: 2064 kb/s
Stream #0:0	: Video: h264 (Main) (avc1 / 0x31637661), yuv420p(tv, bt709), 1280x720, 1861 kb/s, 23.98 fps, 23.98 tbr, 24k tbn, 47.95 tbc (default)
creation_time	: 2017-08-12 13:55:59
Stream #0:1(jpn): Audio: aac (LC) (mp4a / 0x6134706D), 48000 Hz, stereo, fltp, 198 kb/s (default)
creation_time	: 2017-08-12 13:45:50
screenshots
Images are auto generated please report any inapropriate images
 

related search cloud

 kakegurui  raws  ohys