Torrent Search | Torrent Meta Search | Widgets

HorribleSubs Boku no Hero Academia 32 720p mkv

324.22 Mb
found 6 days ago
▲ seeders: 904 ▼ leechers:21
your vote:
real:
fake:
download torrent

HorribleSubs Boku no Hero Academia 32 720p mkv torrent

Information about the torrent HorribleSubs Boku no Hero Academia 32 720p mkv. Seeders, leechers and torrent status is updated several times per day.

If you want to download the hdrip torrent HorribleSubs Boku no Hero Academia 32 720p mkv you will need a torrent client.

Torrent Metasearch.

tracker
seeders
leechers
↓ torrent client compatible list

↑ hide torrent client compatible list

torrent contents

[HorribleSubs] Boku no Hero Academia - 32 [720p].mkv torrent

[HorribleSubs] Boku no Hero Academia - 32 [720p].mkv324.22 Mb torrent search

Sample info:
Duration: 00:23:55.80, start: 0.000000, bitrate: 1894 kb/s
Stream #0:0: Video: h264 (High), yuv420p, 1280x720 [SAR 1:1 DAR 16:9], 23.81 fps, 23.81 tbr, 1k tbn, 47.95 tbc (default)
BPS	: 1769597
BPS-eng	: 1769597
DURATION	: 00:23:50.013000000
DURATION-eng	: 00:23:50.013000000
NUMBER_OF_FRAMES: 34287
NUMBER_OF_FRAMES-eng: 34287
NUMBER_OF_BYTES : 316318423
NUMBER_OF_BYTES-eng: 316318423
_STATISTICS_WRITING_APP: no_variable_data
_STATISTICS_WRITING_APP-eng: no_variable_data
_STATISTICS_WRITING_DATE_UTC: 1970-01-01 00:00:00
_STATISTICS_WRITING_DATE_UTC-eng: 1970-01-01 00:00:00
_STATISTICS_TAGS: BPS DURATION NUMBER_OF_FRAMES NUMBER_OF_BYTES
_STATISTICS_TAGS-eng: BPS DURATION NUMBER_OF_FRAMES NUMBER_OF_BYTES
Stream #0:1(jpn): Audio: aac (LC), 44100 Hz, stereo, fltp (default)
BPS	: 127999
BPS-eng	: 127999
DURATION	: 00:23:50.094000000
DURATION-eng	: 00:23:50.094000000
NUMBER_OF_FRAMES: 61589
NUMBER_OF_FRAMES-eng: 61589
NUMBER_OF_BYTES : 22881500
NUMBER_OF_BYTES-eng: 22881500
_STATISTICS_WRITING_APP: no_variable_data
_STATISTICS_WRITING_APP-eng: no_variable_data
_STATISTICS_WRITING_DATE_UTC: 1970-01-01 00:00:00
_STATISTICS_WRITING_DATE_UTC-eng: 1970-01-01 00:00:00
_STATISTICS_TAGS: BPS DURATION NUMBER_OF_FRAMES NUMBER_OF_BYTES
_STATISTICS_TAGS-eng: BPS DURATION NUMBER_OF_FRAMES NUMBER_OF_BYTES
Stream #0:2(eng): Subtitle: ass (default)
BPS	: 148
BPS-eng	: 148
DURATION	: 00:23:52.820000000
DURATION-eng	: 00:23:52.820000000
NUMBER_OF_FRAMES: 420
NUMBER_OF_FRAMES-eng: 420
NUMBER_OF_BYTES : 26649
NUMBER_OF_BYTES-eng: 26649
_STATISTICS_WRITING_APP: no_variable_data
_STATISTICS_WRITING_APP-eng: no_variable_data
_STATISTICS_WRITING_DATE_UTC: 1970-01-01 00:00:00
_STATISTICS_WRITING_DATE_UTC-eng: 1970-01-01 00:00:00
_STATISTICS_TAGS: BPS DURATION NUMBER_OF_FRAMES NUMBER_OF_BYTES
_STATISTICS_TAGS-eng: BPS DURATION NUMBER_OF_FRAMES NUMBER_OF_BYTES
Stream #0:3: Attachment: ttf
filename	: OpenSans-Semibold.ttf
mimetype	: application/x-truetype-font
screenshots
Images are auto generated please report any inapropriate images
 

related search cloud

 academia  hero  boku  horriblesubs