Torrent Search | Torrent Meta Search | Widgets

Ip Man 2 (2010)

       
649.95 Mb
found 3 years ago
▲ seeders: 166 ▼ leechers:19
your vote:
real:
fake:
Direct Download
THANK YOU
download torrent
  Direct Downloadsponsored

Ip Man 2 (2010) torrent

Information about the torrent Ip Man 2 (2010). Seeders, leechers and torrent status is updated several times per day.

If you want to download the hdrip torrent Ip Man 2 (2010) you will need a torrent client.

Torrent Metasearch.

Torrent verified by kat.ph.

tracker
seeders
leechers
↓ torrent client compatible list

↑ hide torrent client compatible list

Help torrentproject.se to stay alive .
Add links of torrentproject.se in your favorite forum, blog, youtube, facebook, twitter etc.
reviews
140
torrent contents

Ip Man 2 (2010) torrent

Ip Man 2 (2010)
Ip Man 2.2010.720p.BrRip.x264.YIFY.mp4649.78 Mb torrent search
Ip Man 2.2010.720p.BrRip.x264.YIFY.srt51.66 Kb torrent search

Ip Man 2 (2010)
 Other
AhaShare.com.txt59 bytes torrent search
Torrent downloaded from Demonoid.com - Copy.txt47 bytes torrent search
Torrent Downloaded From ExtraTorrent.com.txt353 bytes torrent search

Ip Man 2 (2010)
WWW.YIFY-TORRENTS.COM.jpg127.61 Kb torrent search

Sample info:
Duration: 01:47:49.76, start: 0.000000, bitrate: 842 kb/s
Stream #0.0	: Video: h264, yuv420p, 1280x544 [PAR 1:1 DAR 40:17], 743 kb/s, 23.98 fps, 23.98 tbr, 96k tbn, 47.95 tbc
creation_time	: 2012-01-25 20:15:34
Stream #0.1	: Audio: aac, 48000 Hz, stereo, s16, 96 kb/s
creation_time	: 2012-01-25 20:17:23
screenshots
Ip Man 2 2010 torrent screenshot 44D9DF1402DE2CAE6422749CCFC702E18655BCB1 Ip Man 2 2010  torrent screenshot 44d9df1402de2cae6422749ccfc702e18655bcb1 torrent Ip Man 2 2010
Ip Man 2 (2010) images are auto generated please report any inapropriate images
 

related search cloud

 yify  downloaded  brrip  torrent  extratorrent  torrents  copy  demonoid  other  ahashare