Torrent Search | Torrent Meta Search | Widgets

Isolation (2015) DVDRip XviD ETRG

       
703.73 Mb
found 5 days ago
▲ seeders: 448 ▼ leechers:153
your vote:
real:
fake:
download torrent

Isolation (2015) DVDRip XviD ETRG torrent

Information about the torrent Isolation (2015) DVDRip XviD ETRG. Seeders, leechers and torrent status is updated everyday.

If you want to download the dvdrip torrent Isolation (2015) DVDRip XviD ETRG you will need a torrent client.

Torrent Metasearch.

Torrent verified by thepiratebay.se.

loading...
tracker
seeders
leechers
↓ torrent client compatible list

↑ hide torrent client compatible list

comments/reviews
140
torrent contents

Isolation.2015.DVDRip.XViD-ETRG torrent

Isolation.2015.DVDRip.XViD-ETRG
ETRG.mp41.45 Mb torrent search
Isolation.2015.DVDRip.XViD-ETRG.avi698.87 Mb torrent search
Isolation.2015.DVDRip.XViD-ETRG.srt56.83 Kb torrent search
Isolation.nfo7.5 Kb torrent search
Torrent Downloaded From ExtraTorrent.cc.txt338 bytes torrent search
sample.avi3.35 Mb torrent search

Sample info:
Duration: 01:34:01.47, start: 0.000000, bitrate: 1039 kb/s
Stream #0:0: Video: mpeg4 (Advanced Simple Profile) (XVID / 0x44495658), yuv420p, 640x272 [SAR 1:1 DAR 40:17], 901 kb/s, 23.98 fps, 23.98 tbr, 23.98 tbn, 23.98 tbc
Stream #0:1: Audio: mp3 (U[0][0][0] / 0x0055), 48000 Hz, stereo, s16p, 128 kb/s
screenshots
Images are auto generated please report any inapropriate images
 

related search cloud

 isolation  etrg  xvid  dvdrip  sample  extratorrent  torrent  downloaded