Torrent Search | Torrent Meta Search | Widgets

HorribleSubs Boku no Hero Academia 28 1080p mkv

544.77 Mb
found 13 days ago
▲ seeders: 700 ▼ leechers:17
your vote:
real:
fake:
download torrent

HorribleSubs Boku no Hero Academia 28 1080p mkv torrent

Information about the torrent HorribleSubs Boku no Hero Academia 28 1080p mkv. Seeders, leechers and torrent status is updated everyday.

If you want to download the hdrip torrent HorribleSubs Boku no Hero Academia 28 1080p mkv you will need a torrent client.

Torrent Metasearch.

tracker
seeders
leechers
↓ torrent client compatible list

↑ hide torrent client compatible list

torrent contents

[HorribleSubs] Boku no Hero Academia - 28 [1080p].mkv torrent

[HorribleSubs] Boku no Hero Academia - 28 [1080p].mkv544.77 Mb torrent search

Sample info:
Duration: 00:23:50.14, start: 0.000000, bitrate: 3195 kb/s
Stream #0:0: Video: h264 (High), yuv420p, 1920x1080 [SAR 1:1 DAR 16:9], 23.81 fps, 23.81 tbr, 1k tbn, 47.95 tbc (default)
BPS	: 3063233
BPS-eng	: 3063233
DURATION	: 00:23:50.055000000
DURATION-eng	: 00:23:50.055000000
NUMBER_OF_FRAMES: 34288
NUMBER_OF_FRAMES-eng: 34288
NUMBER_OF_BYTES : 547574103
NUMBER_OF_BYTES-eng: 547574103
_STATISTICS_WRITING_APP: no_variable_data
_STATISTICS_WRITING_APP-eng: no_variable_data
_STATISTICS_WRITING_DATE_UTC: 1970-01-01 00:00:00
_STATISTICS_WRITING_DATE_UTC-eng: 1970-01-01 00:00:00
_STATISTICS_TAGS: BPS DURATION NUMBER_OF_FRAMES NUMBER_OF_BYTES
_STATISTICS_TAGS-eng: BPS DURATION NUMBER_OF_FRAMES NUMBER_OF_BYTES
Stream #0:1(jpn): Audio: aac (LC), 44100 Hz, stereo, fltp (default)
BPS	: 128000
BPS-eng	: 128000
DURATION	: 00:23:50.140000000
DURATION-eng	: 00:23:50.140000000
NUMBER_OF_FRAMES: 61591
NUMBER_OF_FRAMES-eng: 61591
NUMBER_OF_BYTES : 22882243
NUMBER_OF_BYTES-eng: 22882243
_STATISTICS_WRITING_APP: no_variable_data
_STATISTICS_WRITING_APP-eng: no_variable_data
_STATISTICS_WRITING_DATE_UTC: 1970-01-01 00:00:00
_STATISTICS_WRITING_DATE_UTC-eng: 1970-01-01 00:00:00
_STATISTICS_TAGS: BPS DURATION NUMBER_OF_FRAMES NUMBER_OF_BYTES
_STATISTICS_TAGS-eng: BPS DURATION NUMBER_OF_FRAMES NUMBER_OF_BYTES
Stream #0:2(eng): Subtitle: ass (default)
BPS	: 148
BPS-eng	: 148
DURATION	: 00:23:49.300000000
DURATION-eng	: 00:23:49.300000000
NUMBER_OF_FRAMES: 387
NUMBER_OF_FRAMES-eng: 387
NUMBER_OF_BYTES : 26519
NUMBER_OF_BYTES-eng: 26519
_STATISTICS_WRITING_APP: no_variable_data
_STATISTICS_WRITING_APP-eng: no_variable_data
_STATISTICS_WRITING_DATE_UTC: 1970-01-01 00:00:00
_STATISTICS_WRITING_DATE_UTC-eng: 1970-01-01 00:00:00
_STATISTICS_TAGS: BPS DURATION NUMBER_OF_FRAMES NUMBER_OF_BYTES
_STATISTICS_TAGS-eng: BPS DURATION NUMBER_OF_FRAMES NUMBER_OF_BYTES
Stream #0:3: Attachment: ttf
filename	: OpenSans-Semibold.ttf
mimetype	: application/x-truetype-font
screenshots
Images are auto generated please report any inapropriate images
 

related search cloud

 academia  hero  boku  horriblesubs