Torrent Search | Torrent Meta Search | Widgets

Animal Passion

       
375.48 Mb
found 3 years ago
▲ seeders: 2 ▼ leechers:1
your vote:
real:
fake:
Direct Download
THANK YOU
download torrent
  Direct Downloadsponsored

Animal Passion torrent

Information about the torrent Animal Passion. Seeders, leechers and torrent status is updated everyday.

If you want to download the video torrent Animal Passion you will need a torrent client.

Torrent Metasearch.

Torrent verified by kat.ph.

tracker
seeders
leechers
↓ torrent client compatible list

↑ hide torrent client compatible list

Help torrentproject.se to stay alive .
Add links of torrentproject.se in your favorite forum, blog, youtube, facebook, twitter etc.
reviews
140
torrent contents

Animal Passion.avi torrent

Animal Passion.avi375.48 Mb torrent search

Sample info:
Duration: 00:59:11.64, start: 0.000000, bitrate: 886 kb/s
Stream #0.0: Video: mpeg4, yuv420p, 352x288 [PAR 1:1 DAR 11:9], 25 fps, 25 tbr, 25 tbn, 30k tbc
Stream #0.1: Audio: mp2, 48000 Hz, stereo, s16, 224 kb/s
title	: Audio Stream
screenshots
Animal Passion torrent screenshot 47AB2961DC8B0F3E16F6C6B7E2EE9472C94D1811 Animal Passion torrent screenshot 47ab2961dc8b0f3e16f6c6b7e2ee9472c94d1811 torrent Animal Passion
Animal Passion.avi images are auto generated please report any inapropriate images
 

related search cloud

 paion  animal