Torrent Search | Torrent Meta Search | Widgets

ShesNew 12 10 05 Felicia Clover Fun Bags XXX 1080p MP4 KTR rbg

681.82 Mb
found 2 years ago
▲ seeders: 2 ▼ leechers:2
your vote:
real:
fake:
Direct Download
THANK YOU
download torrent
  Direct Downloadsponsored

ShesNew 12 10 05 Felicia Clover Fun Bags XXX 1080p MP4 KTR rbg torrent

Information about the torrent ShesNew 12 10 05 Felicia Clover Fun Bags XXX 1080p MP4 KTR rbg. Seeders, leechers and torrent status is updated several times per day.

If you want to download the adult torrent ShesNew 12 10 05 Felicia Clover Fun Bags XXX 1080p MP4 KTR rbg you will need a torrent client.

Torrent Metasearch.

tracker
seeders
leechers
↓ torrent client compatible list

↑ hide torrent client compatible list

Help torrentproject.se to stay alive .
Add links of torrentproject.se in your favorite forum, blog, youtube, facebook, twitter etc.
reviews
140
torrent contents

ShesNew.12.10.05.Felicia.Clover.Fun.Bags.XXX.1080p.MP4-KTR[rbg] torrent

ShesNew.12.10.05.Felicia.Clover.Fun.Bags.XXX.1080p.MP4-KTR[rbg]
RARBG.com.txt34 bytes torrent search

ShesNew.12.10.05.Felicia.Clover.Fun.Bags.XXX.1080p.MP4-KTR[rbg]
 Sample
ktr.ssn.12.10.05.felicia.clover.fun.bags.mp474.57 Mb torrent search

ShesNew.12.10.05.Felicia.Clover.Fun.Bags.XXX.1080p.MP4-KTR[rbg]
ktr.ssn.12.10.05.felicia.clover.fun.bags.mp4607.24 Mb torrent search
ktr.ssn.12.10.05.felicia.clover.fun.bags.nfo6.73 Kb torrent search

Sample info:
Duration: 00:08:22.64, start: 0.000000, bitrate: 10134 kb/s
Stream #0.0(eng): Video: h264 (Main), yuv420p, 1920x1080 [PAR 1:1 DAR 16:9], 10002 kb/s, 29.97 fps, 29.97 tbr, 2997 tbn, 59.94 tbc
creation_time	: 2012-09-26 14:30:00
Stream #0.1(eng): Audio: aac, 44100 Hz, stereo, s16, 127 kb/s
creation_time	: 2012-09-26 14:30:00
Stream #0.2(eng): Data: mp4s / 0x7334706D, 0 kb/s
creation_time	: 2012-09-26 14:30:00
Stream #0.3(eng): Data: mp4s / 0x7334706D, 0 kb/s
creation_time	: 2012-09-26 14:30:00
screenshots
ShesNew 12 10 05 torrent screenshot 47B7581F22EA065B290A3D5C81C06BF1F4FF9910 ShesNew 12 10 05  torrent screenshot 47b7581f22ea065b290a3d5c81c06bf1f4ff9910 torrent ShesNew 12 10 05
ShesNew.12.10.05.Felicia.Clover.Fun.Bags.XXX.1080p.MP4-KTR[rbg] images are auto generated please report any inapropriate images
 

related search cloud

 bags  clover  felicia  shesnew  sample  rarbg