Torrent Search | Torrent Meta Search | Widgets

Taboo Brasil 3 XXX

1.17 Gb
found 1 year ago
▲ seeders: 5 ▼ leechers:1
your vote:
real:
fake:
Direct Download
THANK YOU
download torrent
  Direct Downloadsponsored

Taboo Brasil 3 XXX torrent

Information about the torrent Taboo Brasil 3 XXX. Seeders, leechers and torrent status is updated everyday.

If you want to download the adult torrent Taboo Brasil 3 XXX you will need a torrent client.

Torrent Metasearch.

tracker
seeders
leechers
↓ torrent client compatible list

↑ hide torrent client compatible list

Help torrentproject.se to stay alive .
Add links of torrentproject.se in your favorite forum, blog, youtube, facebook, twitter etc.
reviews
140
torrent contents

Taboo.Brasil.3.XXX torrent

Taboo.Brasil.3.XXX
Taboo.Brasil.3.XXX.avi1.17 Gb torrent search

Sample info:
Duration: 01:18:05.64, start: 0.000000, bitrate: 2143 kb/s
Stream #0.0: Video: mpeg4 (Simple Profile), yuv420p, 720x576 [PAR 1:1 DAR 5:4], 25 tbr, 25 tbn, 25 tbc
Stream #0.1: Audio: mp3, 48000 Hz, stereo, s16, 128 kb/s
screenshots
Taboo Brasil 3 XXX torrent screenshot 499FF1883BF0DF7D06659B9A320CFC004B822997 Taboo Brasil 3 XXX torrent screenshot 499ff1883bf0df7d06659b9a320cfc004b822997 torrent Taboo Brasil 3 XXX
Taboo.Brasil.3.XXX images are auto generated please report any inapropriate images
you may be interested in these torrents seeders leechers size found
Taboo Brasil 3 Spanish XXX DVDRip XviD 3 0 747.09 Mb 2 years ago

Taboo.Brasil.3.[Spanish].XXX.DVDRip.XviD-WwW.TorrentesX.CoM.avi


Taboo Brasil Season 3 DVDRip XxX 1 2 1.17 Gb 1 year ago

Taboo.Brasil.Season.3.DVDRip.XxX.avi


Taboo Brasil 3 XXXDVDRip 0 1 1.17 Gb 1 year ago

RARBG.com.txt Taboo.Brasil.3.XXX.avi


Taboo Brasil 3 XXXDVDRip 0 1 1.17 Gb 1 year ago

RARBG.com.txt Taboo.Brasil.3.XXX.avi


 

related search cloud

 brasil  taboo